Welcome Guest ( Log In | Register )

> Releases Upload / Добавление релизов

Добавить релиз тут / Click here to add release
Рекомендованные обменники / Recommended file shares

> Alleyway - After Dark (2020), Speed Metal/Punk/Rock
post Oct 13 2020, 06:39:03
Post #1

Правь статус, ####!111
**************
Group: Металариец
Posts: 3,313
Releases: 2990
From: Одесса
On Forums: 12 years 5 months
Thanks: 30321 time(s)
Ukraine


(IMG:http://metalarea.org/images/audiocovers/2020_Oct/acov_tid342536_thumb.jpg)

*Artist: Alleyway
*Album: After Dark
*Year: 2020
*Genre: Speed Metal/Punk/Rock
*Country: United States (IMG:http://metalarea.org/forum/style_images/flags/United%20States.png)
*Format: mp3@CBR320kbps
*Size: 71MB

Tracklist:
1. Next Passenger-X 03:45
2. Live Wild Now 02:46
3. All the Screams 03:14
4. Sousson-Pannan 02:41
5. After Dark 03:07
6. Snake Eyes 03:00
7. Sorrento Nites 02:56
8. Her Own World 02:17
9. The Closer 02:50
10. Geesis in Rapture 02:54
******************************
Total playing time: 29:30

Extended info
Line - up:

Andy Beam - Bass (Upon Extinction)
Nick Moyle - Guitars, Vocals (Razor Fist, ex-Hell on Earth, ex-Tower of Babel)
Dave Patterson - Drums (ex-Neon Hole)




(IMG:https://f4.bcbits.com/img/0014750949_10.jpg)


Technical info
(IMG:http://metalarea.org/images/spectrogram/2020_Oct/34b56c08436e8e7357016679071ca637.png)
Input File: 03 - All the Screams.mp3
Channels : 2
Sample Rate : 44100
Precision : 16-bit
Duration : 00:03:14.91 = 8595663 samples = 14618.5 CDDA sectors
File Size : 7.80M
Bit Rate : 320k
Sample Encoding: MPEG audio (layer I, II or III)
Comments :
Title=All the Screams
Artist=Alleyway
Album=After Dark
Tracknumber=3
Year=2020
Genre=Speed Metal/Punk/Rock



Register


Go to the top of the page
  Insert nick Quick quote
+Quote Post
 
Start new topic
Replies (1 - 2)
post Oct 14 2020, 18:42:20
Post #2

Четыре Литра
****
Group: Металариец
Posts: 360
Releases: 0
From: Kyiv
On Forums: 8 years 7 months
Thanks: 148 time(s)
Ukraine


Отлично, например
Go to the top of the page
  Insert nick Quick quote
+Quote Post
post Oct 16 2020, 16:23:19
Post #3

Литр
*
Group: Подсевший
Posts: 56
Releases: 0
On Forums: 11 years 9 months
Thanks: 19 time(s)
Russian Federation


https://music.yandex.ru/album/11956351
Go to the top of the page
  Insert nick Quick quote
+Quote Post

Reply to this topicStart new topic
1 User(s) are reading this topic (1 Guests and 0 Anonymous Users)
0 Members:

 



- Lo-Fi Version Support form
Copyrights and abuse reports form
Time is now: 24th November 2020 - 11:12:06