Welcome Guest ( Log In | Register )

> Releases Upload / Добавление релизов

Добавить релиз тут / Click here to add release
Рекомендованные обменники / Recommended file shares

> Cracked Corpuscles - Ödland [demo] (1996), Doom/Death Metal
post Oct 15 2020, 17:42:12
Post #1

...
**************
Group: Металариец
Posts: 3,496
Releases: 1465
From: МЕЩЁРА
On Forums: 12 years 8 months
Thanks: 42582 time(s)
Russian Federation


(IMG:https://metalarea.org/images/audiocovers/2020_Oct/acov_tid342623_thumb.jpg)

*Artist: Cracked Corpuscles
*Album: Ödland [demo]
*Year: 1996
*Genre: Doom/Death Metal
*Country: Germany (IMG:https://metalarea.org/forum/style_images/flags/Germany.png)
*Format: mp3@CBR320kbps
*Size: 74MB

Tracklist:
1. Repulsion 05:10
2. In Der Tiefe 05:45
3. Wald 05:11
4. Stolz 03:39
5. Ödnis 04:32
6. Schatten 04:04
7. Inkassantenmarsch 03:49
******************************
Total playing time: 32:10



Technical info
(IMG:https://metalarea.org/images/spectrogram/2020_Oct/bac1021a2f691cd5d6008745ff76af22.png)
Input File: 1. Repulsion.mp3
Channels : 2
Sample Rate : 44100
Precision : 16-bit
Duration : 00:05:10.20 = 13679600 samples = 23264.6 CDDA sectors
File Size : 12.5M
Bit Rate : 322k
Sample Encoding: MPEG audio (layer I, II or III)
Comments :
Title=Repulsion
Artist=Cracked Corpuscles
Album=Ödland ('96)
Tracknumber=1
Year=1996



Register


Go to the top of the page
  Insert nick Quick quote
+Quote Post
 
Start new topic
Replies (1 - 2)
post Oct 16 2020, 16:43:20
Post #2

практически всеядное
****
Group: Металариец
Posts: 348
Releases: 0
On Forums: 11 years 8 months
Thanks: 193 time(s)
Russian Federation


ЦИТАТА(RUDACHUR @ Oct 15 2020, 21:42:12) *
https://metalarea.org/images/audiocovers/20...42623_thumb.jpg

*Artist: Cracked Corpuscles
*Album: Ödland [demo]
*Year: 1996
*Genre: Doom/Death Metal
*Country: Germany https://metalarea.org/forum/style_images/flags/Germany.png
*Format: mp3@CBR320kbps
*Size: 74MB

Tracklist:
1. Repulsion 05:10
2. In Der Tiefe 05:45
3. Wald 05:11
4. Stolz 03:39
5. Ödnis 04:32
6. Schatten 04:04
7. Inkassantenmarsch 03:49
******************************
Total playing time: 32:10



Technical info
https://metalarea.org/images/spectrogram/20...745ff76af22.png
Input File: 1. Repulsion.mp3
Channels : 2
Sample Rate : 44100
Precision : 16-bit
Duration : 00:05:10.20 = 13679600 samples = 23264.6 CDDA sectors
File Size : 12.5M
Bit Rate : 322k
Sample Encoding: MPEG audio (layer I, II or III)
Comments :
Title=Repulsion
Artist=Cracked Corpuscles
Album=Ödland ('96)
Tracknumber=1
Year=1996


Ничего не найдено
Владелец удалил файлы либо закрыл к ним доступ или в ссылке опечатка.
Go to the top of the page
  Insert nick Quick quote
+Quote Post
post Oct 16 2020, 18:55:50
Post #3

...
**************
Group: Металариец
Posts: 3,496
Releases: 1465
From: МЕЩЁРА
On Forums: 12 years 8 months
Thanks: 42582 time(s)
Russian Federation


ЦИТАТА(VALERY @ Oct 16 2020, 18:43:20) *
Ничего не найдено
Владелец удалил файлы либо закрыл к ним доступ или в ссылке опечатка.

Глюк какой-то - исправил !


Thanks:
Go to the top of the page
  Insert nick Quick quote
+Quote Post

Reply to this topicStart new topic
1 User(s) are reading this topic (1 Guests and 0 Anonymous Users)
0 Members:

 



- Lo-Fi Version Support form
Copyrights and abuse reports form
Time is now: 4th December 2020 - 12:13:47