Welcome Guest ( Log In | Register )

> Releases Upload / Добавление релизов

Добавить релиз тут / Click here to add release
Рекомендованные обменники / Recommended file shares

> Heavy Mozart - I999 [demo] (1999), Doom/Death Metal
post Oct 15 2020, 17:44:05
Post #1

...
**************
Group: Металариец
Posts: 3,496
Releases: 1465
From: МЕЩЁРА
On Forums: 12 years 8 months
Thanks: 42582 time(s)
Russian Federation


(IMG:https://metalarea.org/images/audiocovers/2020_Oct/acov_tid342624_thumb.jpg)

*Artist: Heavy Mozart
*Album: I999 [demo]
*Year: 1999
*Genre: Doom/Death Metal
*Country: Netherlands (IMG:https://metalarea.org/forum/style_images/flags/Netherlands.png)
*Format: mp3@CBR320kbps
*Size: 82MB

Tracklist:
1. Unbound 03:10
2. Elysium Denied 04:48
3. Reborn 05:47
4. Aftermath 04:50
5. Burden Of Remembrance 06:44
6. Lost 03:46
7. Passionate 06:43
******************************
Total playing time: 35:48



Technical info
(IMG:https://metalarea.org/images/spectrogram/2020_Oct/4c433217e91ce3527521ac077eb0ca5f.png)
Input File: 2. Elysium Denied.mp3
Channels : 2
Sample Rate : 44100
Precision : 16-bit
Duration : 00:04:48.98 = 12744106 samples = 21673.6 CDDA sectors
File Size : 11.7M
Bit Rate : 323k
Sample Encoding: MPEG audio (layer I, II or III)
Comments :
Title=Elysium Denied
Artist=Heavy Mozart
Album=i999
Tracknumber=2
Year=1999



Register


Go to the top of the page
  Insert nick Quick quote
+Quote Post
 
Start new topic
Replies (1 - 2)
post Oct 16 2020, 18:54:33
Post #2

...
**************
Group: Металариец
Posts: 3,496
Releases: 1465
From: МЕЩЁРА
On Forums: 12 years 8 months
Thanks: 42582 time(s)
Russian Federation


Не пропустите - классный Doom/Death Metal с виолончелью (или скрипка) ! Короче Phlebotomized какой-то ! (IMG:style_emoticons/default/smile1.gif)


Thanks:
Go to the top of the page
  Insert nick Quick quote
+Quote Post
post Oct 16 2020, 20:59:10
Post #3

####!111
**************
Group: Металариец
Posts: 4,258
Releases: 128
From: The Mountain Of DOOM
On Forums: 13 years 1 month
Thanks: 5904 time(s)
Russian Federation


А еще тут на гитаре чел из Akelei
Go to the top of the page
  Insert nick Quick quote
+Quote Post

Reply to this topicStart new topic
1 User(s) are reading this topic (1 Guests and 0 Anonymous Users)
0 Members:

 



- Lo-Fi Version Support form
Copyrights and abuse reports form
Time is now: 4th December 2020 - 11:59:40