Welcome Guest ( Log In | Register )

> И неформату есть предел.

Рэп/хип-хоп/шансон/поп удаляются. Для них есть свои порталы.

> En Minor - When The Cold Truth Has Worn Its Miserable Welcome Out (2020), Southern Rock
post Oct 16 2020, 12:03:09
Post #1

Четыре Литра
****
Group: Металариец
Posts: 362
Releases: 132
From: Helvetia
On Forums: 7 years 8 months
Thanks: 2630 time(s)
Switzerland


(IMG:https://metalarea.org/images/audiocovers/2020_Oct/acov_tid342642_thumb.jpg)

*Artist: En Minor
*Album: When The Cold Truth Has Worn Its Miserable Welcome Out
*Year: 2020
*Genre: Southern Rock
*Country: United States (IMG:https://metalarea.org/forum/style_images/flags/United%20States.png)
*Format: mp3@CBR320kbps
*Size: 101MB

Tracklist:
1. Mausoleums 04:56
2. Blue 05:07
3. On The Floor 05:22
4. Dead Can't Dance 02:38
5. Love Needs Love 03:38
6. Warm Sharp Bath Sleep 04:20
7. Melancholia 03:19
8. This Is Not Your Day 03:02
9. Black Mass 04:40
10. Hats Off 02:51
11. Disposable For You 04:26
******************************
Total playing time: 44:19


(IMG:https://metalarea.org/images/youtube.png)
(IMG:https://metalarea.org/images/youtube.png)


Extended info
Philip H. Anselmo
Vocals, Guitar, Percussions
Stephen Taylor
Guitar
Kevin Bond
Guitar
Steve Bernal
Cello
Calvin Dover
Keyboards
Joiner Dover
Bass
Jimmy Bower
Drums
Paul Webb
Guitar


Technical info
(IMG:https://metalarea.org/images/spectrogram/2020_Oct/dff4822658f29391868387cabd1c395a.png)
Input File: 03. On the Floor.mp3
Channels : 2
Sample Rate : 44100
Precision : 16-bit
Duration : 00:00:00.32 = 14200 samples = 24.1497 CDDA sectors
File Size : 12.9M
Bit Rate : 321M
Sample Encoding: MPEG audio (layer I, II or III)
Comments :
Title=On the Floor
Artist=En Minor
Album=When the Cold Truth Has Worn Its Miserable Welcome Out
Tracknumber=3
Year=2020
Genre=Dark Folk
Discnumber=1



Register


Go to the top of the page
  Insert nick Quick quote
+Quote Post
 
Start new topic
Replies (1 - 1)
post Oct 24 2020, 05:23:33
Post #2
BAN
Banned till
Nov 24 2020, 09:43:09



Сделайте пож. Ссылку на медиафире
Go to the top of the page
  Insert nick Quick quote
+Quote Post

Reply to this topicStart new topic
2 User(s) are reading this topic (1 Guests and 0 Anonymous Users)
1 Members: Vitald

 



- Lo-Fi Version Support form
Copyrights and abuse reports form
Time is now: 27th October 2020 - 09:57:23