Welcome Guest ( Log In | Register )

 
Reply to this topicStart new topic
> Tamrin - Emotional Holocaust [demo] (1992), Alternative Rock/Progressive/Thrash Metal
post Oct 16 2020, 13:47:33
Post #1

Подвал
**************
Group: Металариец
Posts: 15,322
Releases: 8703
From: Far East (Khabarovsk)
On Forums: 11 years 9 months
Thanks: 92283 time(s)
Russian Federation


(IMG:http://metalarea.org/images/audiocovers/2020_Oct/acov_tid342644_thumb.jpg)

*Artist: Tamrin
*Album: Emotional Holocaust [demo]
*Year: 1992
*Genre: Alternative Rock/Progressive/Thrash Metal
*Country: United States (IMG:http://metalarea.org/forum/style_images/flags/United%20States.png)
*Format: mp3@CBR192kbps
*Size: 21MB

Tracklist:
1. Isolation 04:57
2. Dead To Me 04:54
3. Emotional Holocaust 02:05
4. Falling Down 03:46
******************************
Total playing time: 15:42



Extended info
Band from Willington, Connecticut.


Technical info
(IMG:http://metalarea.org/images/spectrogram/2020_Oct/27b512583902850949656be437d6216c.png)
Input File: 02-Dead To Me.mp3
Channels : 2
Sample Rate : 44100
Precision : 16-bit
Duration : 00:04:54.94 = 13006678 samples = 22120.2 CDDA sectors
File Size : 7.08M
Bit Rate : 192k
Sample Encoding: MPEG audio (layer I, II or III)
Comments :
Title=Dead To Me
Artist=Tamrin (US, CT)
Album=Emotional Holocaust (Demo)
Tracknumber=02
Year=1992
Genre=Metal



Register


Go to the top of the page
  Insert nick Quick quote
+Quote Post

Reply to this topicStart new topic
1 User(s) are reading this topic (1 Guests and 0 Anonymous Users)
0 Members:

 



- Lo-Fi Version Support form
Copyrights and abuse reports form
Time is now: 30th October 2020 - 08:13:07