Welcome Guest ( Log In | Register )

 
Reply to this topicStart new topic
> Teknikill - Secular Rising (2014), Thrash/Heavy Metal
post Oct 16 2020, 14:15:59
Post #1

Подвал
**************
Group: Металариец
Posts: 15,322
Releases: 8703
From: Far East (Khabarovsk)
On Forums: 11 years 9 months
Thanks: 92289 time(s)
Russian Federation


(IMG:http://metalarea.org/images/audiocovers/2020_Oct/acov_tid342645_thumb.jpg)

*Artist: Teknikill
*Album: Secular Rising
*Year: 2014
*Genre: Thrash/Heavy Metal
*Country: United States (IMG:http://metalarea.org/forum/style_images/flags/United%20States.png)
*Format: mp3@VBR152kbps (IMG:http://metalarea.org/images/bit_low.gif)
*Size: 57MB

Tracklist:
1. The Ignorant 04:53
2. Turn The Gun Around 03:24
3. An Individual 03:32
4. Ticket To Heaven 03:50
5. Return The Hate 03:20
6. Above The Law 05:13
7. Disgraced 05:03
8. Take The Pain 03:57
9. A Choice 04:27
10. R.F.F. 06:13
11. Hitler Song 02:14
12. The Devoted 06:41
******************************
Total playing time: 52:47



Extended info
Band from Chicago, Illinois (ex-Technikill, the same what released s/t demo in 1988).


Technical info
(IMG:http://metalarea.org/images/spectrogram/2020_Oct/461f6a514432427efe1e032593fa5a20.png)
Input File: 01-The Ignorant.mp3
Channels : 2
Sample Rate : 44100
Precision : 16-bit
Duration : 00:04:53.59 = 12947319 samples = 22019.2 CDDA sectors
File Size : 5.55M
Bit Rate : 151k
Sample Encoding: MPEG audio (layer I, II or III)
Comments :
Title=The Ignorant
Artist=Tekninkill (US, IL)
Album=Secular Rising
Tracknumber=01
Year=2014
Genre=Thrash Metal



Register


Go to the top of the page
  Insert nick Quick quote
+Quote Post

Reply to this topicStart new topic
1 User(s) are reading this topic (1 Guests and 0 Anonymous Users)
0 Members:

 



- Lo-Fi Version Support form
Copyrights and abuse reports form
Time is now: 30th October 2020 - 09:17:50