Welcome Guest ( Log In | Register )

> Releases Upload / Добавление релизов

Добавить релиз тут / Click here to add release
Рекомендованные обменники / Recommended file shares

> Old Sorcery - Sorrowcrown (2020), Black Metal
post Oct 16 2020, 15:14:21
Post #1

Правь статус, ####!111
**************
Group: Металариец
Posts: 2,107
Releases: 1670
From: Praha
On Forums: 6 years 6 months
Thanks: 43401 time(s)
Czech Republic


(IMG:http://metalarea.org/images/audiocovers/2020_Oct/acov_tid342646_thumb.jpg)

*Artist: Old Sorcery
*Album: Sorrowcrown
*Year: 2020
*Genre: Black Metal
*Country: Finland (IMG:http://metalarea.org/forum/style_images/flags/Finland.png)
*Format: mp3@CBR320kbps
*Size: 158MB

Tracklist:
1. Fortress of Molten Silver 18:40
2. Voidborn 15:41
3. Phantasm 12:54
4. Blades of a Reflection 20:26
******************************
Total playing time: 1:07:41



Technical info
(IMG:http://metalarea.org/images/spectrogram/2020_Oct/dfabd6d9b5fff5965f713445c9bc8884.png)
Input File: 01. Fortress of Molten Silver.mp3
Channels : 2
Sample Rate : 44100
Precision : 16-bit
Duration : 00:18:40.64 = 49420224 samples = 84048 CDDA sectors
File Size : 45.3M
Bit Rate : 323k
Sample Encoding: MPEG audio (layer I, II or III)
Comments :
Title=Fortress of Molten Silver
Artist=Old Sorcery
Album=Sorrowcrown
Tracknumber=01/04
Year=2020
Genre=Black Metal



Register


Go to the top of the page
  Insert nick Quick quote
+Quote Post
 
Start new topic
Replies (1 - 4)
post Oct 16 2020, 16:23:29
Post #2

Правь статус, ####!111
**************
Group: Металариец
Posts: 3,210
Releases: 10
From: Dnipro
On Forums: 12 years 3 months
Thanks: 1166 time(s)
Ukraine


Этакий Mare Cognitum по фински, только еще более атмосферный и космический.
Если бы не 12-ти минутная инструменталка, был бы вообще улет.
Go to the top of the page
  Insert nick Quick quote
+Quote Post
post Oct 16 2020, 20:07:38
Post #3

Forever Underground
**************
Group: Металариец
Posts: 7,556
Releases: 0
On Forums: 5 years 6 months
Thanks: 9891 time(s)
Unknown


Mirror
Register


Go to the top of the page
  Insert nick Quick quote
+Quote Post
post Oct 18 2020, 15:59:38
Post #4

Правь статус, ####!111
**************
Group: Металариец
Posts: 3,210
Releases: 10
From: Dnipro
On Forums: 12 years 3 months
Thanks: 1166 time(s)
Ukraine


Послушал пару раз и немного изменилось мнение, это ближе все таки к Limbonic Art и даже в первой песне в коне нотки Summoning проскакивают.


Thanks:
(1) Occultas,
Go to the top of the page
  Insert nick Quick quote
+Quote Post
post Oct 21 2020, 04:19:18
Post #5

Самый Тихий Час
**************
Group: Металариец
Posts: 6,131
Releases: 2
On Forums: 10 years 11 months
Thanks: 2823 time(s)
Unknown


Волшебно по старому.


Thanks:
(1) Occultas,
Go to the top of the page
  Insert nick Quick quote
+Quote Post

Reply to this topicStart new topic
1 User(s) are reading this topic (1 Guests and 0 Anonymous Users)
0 Members:

 



- Lo-Fi Version Support form
Copyrights and abuse reports form
Time is now: 30th October 2020 - 08:25:48