Welcome Guest ( Log In | Register )

> Releases Upload / Добавление релизов

Добавить релиз тут / Click here to add release
Рекомендованные обменники / Recommended file shares

 
Reply to this topicStart new topic
> Therrorder - Sangre Y Muerte (2020), Thrash/Death Metal
post Oct 16 2020, 15:47:46
Post #1

Правь статус, ####!111
**************
Group: Металариец
Posts: 23,570
Releases: 16504
From: Г.Харьков
On Forums: 8 years 5 months
Thanks: 311387 time(s)
Unknown


(IMG:https://metalarea.org/images/audiocovers/2020_Oct/acov_tid342647_thumb.jpg)

*Artist: Therrorder
*Album: Sangre Y Muerte
*Year: 2020
*Genre: Thrash/Death Metal
*Country: Colombia (IMG:https://metalarea.org/forum/style_images/flags/Colombia.png)
*Format: mp3@CBR320kbps
*Size: 79MB

Tracklist:
1. Intro
2. Gates of Evil
3. Therrorder
4. Revolucion
5. Esclavo Del Tiempo
6. Abismo
7. Almas Condenadas
8. Sombras
9. Tiempos de Guerra
******************************
Total playing time: 34:03



Extended info
Felipe Gonzalez Drums (2011-present)
See also: War Thrashed, ex-Violator (live)
Cristian Espinel Guitars (lead) (2011-present)
Carlos Romero Vocals (lead) (2011-present)
Ana Briñez Bass (2014-present)
See also: Ubergehen, ex-Fedra, ex-Human Crisis (Col)
Alejandro Espinel Guitars (rhythm) (2015-present)



Technical info
(IMG:https://metalarea.org/images/spectrogram/2020_Oct/4dc29c627f5aa738810fb45c845f717e.png)
Input File: 07 - Almas Condenadas.mp3
Channels : 2
Sample Rate : 44100
Precision : 16-bit
Duration : 00:04:14.50 = 11223538 samples = 19087.6 CDDA sectors
File Size : 10.3M
Bit Rate : 325k
Sample Encoding: MPEG audio (layer I, II or III)
Comments :
Title=Almas Condenadas
Artist=Therrorder
Album=Sangre y Muerte
Tracknumber=7
Year=2020



Register


Go to the top of the page
  Insert nick Quick quote
+Quote Post

Reply to this topicStart new topic
1 User(s) are reading this topic (1 Guests and 0 Anonymous Users)
0 Members:

 



- Lo-Fi Version Support form
Copyrights and abuse reports form
Time is now: 30th October 2020 - 07:41:03