Welcome Guest ( Log In | Register )

> Releases Upload / Добавление релизов

Добавить релиз тут / Click here to add release
Рекомендованные обменники / Recommended file shares

> Spilling Entrails - Monolith Of Maggot Eaten Flesh (2020), Slamming Brutal Death Metal
post Oct 16 2020, 16:10:09
Post #1

Правь статус, ####!111
**************
Group: Металариец
Posts: 23,570
Releases: 16504
From: Г.Харьков
On Forums: 8 years 5 months
Thanks: 311408 time(s)
Unknown


(IMG:https://metalarea.org/images/audiocovers/2020_Oct/acov_tid342648_thumb.jpg)

*Artist: Spilling Entrails
*Album: Monolith Of Maggot Eaten Flesh
*Year: 2020
*Genre: Slamming Brutal Death Metal
*Country: United States (IMG:https://metalarea.org/forum/style_images/flags/United%20States.png)
*Format: mp3@CBR320kbps
*Size: 57MB

Tracklist:
01. Feasting on Visceral Ghonerea
02. Monolith of Maggot Eaten Flesh
03. Axe Wedged in Cranial Contents
04. Ritualized Sexual Degeneracy
05. Zombie Hammer Tango
06. Pulled Apart Then Reassembled
07. Ingesting Oral Secretions
08. Dead Body Cum Rag
09. Puss Filled and Anal Drilled
******************************
Total playing time: 24:40



Extended info
Darryn Palmer Vocals, Guitars, Drum programming (2013-2017), Guitars (2019-present)
See also: Esophagus Rot, ex-$lutrot, ex-Perverse Imagery, ex-Slamophiliac, ex-Slam Induced Groove, Mallet, ex-Human Carcass Crop Circle, ex-Insidious Asphyxiation, ex-Nervectomy, ex-Necroexophilia, ex-Accepting the Apocalypse, ex-Anal Bush, ex-Dazz, ex-Exiting the Law, ex-Laparotomy, ex-Spear Gored, ex-Stone Age Anarchy
Chris Humeniuk Bass (2019-present)
See also: Fumigation, Norilsk (live), ex-Remnants of a Deity
Evan Barton Drums (2019-present)
See also: ...Under a Full Moon, Chainsaw Disgorgement, Cult of the Black Witch, Delaying the Inevitable, Emotionless Laceration, Gorr, Neckbeard Deathcamp, Sankara, Serial Pisser, The Wizard of Bong Mountain, Vinnytsia Fatalities, ex-$lutrot, ex-Fvrlvrn, ex-Disrhythmia, ex-Hematospermia, ex-Morgue Walker, ex-Putrefying Cadaverment, ex-Hateful Transgression, ex-Your End
Zack Shaw Vocals (2019-present)
See also: Ectomyectomy, Phalloplasty, ex-Guttural Jesus, ex-To Decay


Technical info
(IMG:https://metalarea.org/images/spectrogram/2020_Oct/c1b68e7bd5194d5f2384f9559b3fbf57.png)
Input File: 04. Ritualized Sexual Degeneracy.mp3
Channels : 2
Sample Rate : 44100
Precision : 16-bit
Duration : 00:03:30.20 = 9269644 samples = 15764.7 CDDA sectors
File Size : 8.41M
Bit Rate : 320k
Sample Encoding: MPEG audio (layer I, II or III)
Comments :
Title=Ritualized Sexual Degeneracy
Artist=Spilling Entrails
Album=Monolith of Maggot Eaten Flesh
Tracknumber=04
Year=2020
Genre=Slam



Register


Go to the top of the page
  Insert nick Quick quote
+Quote Post
 
Start new topic
Replies (1 - 1)
post Oct 18 2020, 08:45:23
Post #2

Семь Литров
*******
Group: Металариец
Posts: 751
Releases: 1
From: APATIN, SERBIA, АПАТИН, СЕРБИЯ
On Forums: 13 years 6 days
Thanks: 1402 time(s)



Flac

Register


Thanks:
(1) Olethros,
Go to the top of the page
  Insert nick Quick quote
+Quote Post

Reply to this topicStart new topic
1 User(s) are reading this topic (1 Guests and 0 Anonymous Users)
0 Members:

 



- Lo-Fi Version Support form
Copyrights and abuse reports form
Time is now: 30th October 2020 - 08:38:00