Welcome Guest ( Log In | Register )

> Releases Upload / Добавление релизов

Добавить релиз тут / Click here to add release
Рекомендованные обменники / Recommended file shares

 
Reply to this topicStart new topic
> Reaper - Stranger Than Fiction (2020), Heavy/Thrash Metal (D16)
post Oct 16 2020, 16:33:00
Post #1

Правь статус, ####!111
**************
Group: Металариец
Posts: 23,912
Releases: 16804
From: Г.Харьков
On Forums: 8 years 6 months
Thanks: 319622 time(s)
Unknown


(IMG:https://metalarea.org/images/audiocovers/2020_Oct/acov_tid342649_thumb.jpg)

*Artist: Reaper
*Album: Stranger Than Fiction
*Year: 2020
*Genre: Heavy/Thrash Metal
*Country: United Kingdom (IMG:https://metalarea.org/forum/style_images/flags/United%20Kingdom.png)
*Format: mp3@CBR320kbps
*Size: 90MB

Tracklist:
01. Event Horizon 01:02
02. Sigil 04:08
03. The Titan 04:22
04. Upon the Sun 05:07
05. Flight 04:46
06. Jericho 03:49
07. Afterlife 06:59
08. Walk the Sky 07:41
******************************
Total playing time: 37:54




Extended info
Anthony Dalton Guitars (lead), Vocals (backing) (2010-present)
Daniel Moran Vocals (lead), Guitars (rhythm) (2010-present)
See also: Equinox, ex-Scare Tactics (live)
Elliott Kyriakides Bass (2018-present)
See also: Devils Henchmen
Anthony Longworth Drums (2018-present)



Technical info
(IMG:https://metalarea.org/images/spectrogram/2020_Oct/2e7ab4d3f94a7ae180261d14010328d4.png)
Input File: 04 Upon the Sun.mp3
Channels : 2
Sample Rate : 44100
Precision : 16-bit
Duration : 00:05:06.62 = 13521766 samples = 22996.2 CDDA sectors
File Size : 12.7M
Bit Rate : 331k
Sample Encoding: MPEG audio (layer I, II or III)
Comments :
Title=Upon the Sun
Artist=Reaper
Album=Stranger Than Fiction
Tracknumber=4/8
Year=2020-20-20
Genre=Metal
Discnumber=1/1



Register


Go to the top of the page
  Insert nick Quick quote
+Quote Post

Reply to this topicStart new topic
1 User(s) are reading this topic (1 Guests and 0 Anonymous Users)
0 Members:

 



- Lo-Fi Version Support form
Copyrights and abuse reports form
Time is now: 24th November 2020 - 11:11:01