Welcome Guest ( Log In | Register )

> Releases Upload / Добавление релизов

Добавить релиз тут / Click here to add release
Рекомендованные обменники / Recommended file shares

> Oblivion Beach - Cold River Spell (2020), Gothic/Doom Metal
post Oct 16 2020, 17:18:42
Post #1

Правь статус, ####!111
**************
Group: Металариец
Posts: 3,157
Releases: 2835
From: Одесса
On Forums: 12 years 4 months
Thanks: 28303 time(s)
Ukraine


(IMG:http://metalarea.org/images/audiocovers/2020_Oct/acov_tid342650_thumb.jpg)

*Artist: Oblivion Beach
*Album: Cold River Spell
*Year: 2020
*Genre: Gothic/Doom Metal
*Country: Finland (IMG:http://metalarea.org/forum/style_images/flags/Finland.png)
*Format: mp3@CBR320kbps
*Size: 92MB

Tracklist:
1. Faces Nameless 04:10
2. Elektrik Forest 03:49
3. Rider 05:04
4. The Dive 05:51
5. Frozen Throne 04:30
6. No Candidate 04:54
7. Teachings Outside the Garden 04:32
8. Bind Myself 05:25
******************************
Total playing time: 38:15



Extended info
Line - up:

Karita Kivioja - Bass, Vocals (backing) (Kamala)
Timo Ruunaniemi - Drums (Kamala, ex-Vuolla)
Mika Laine - Guitars (Teardown, ex-Vuolla)
Ilari Kallinen - Guitars (ex-Vuolla, ex-Slowmotion Downpour)
Kati Kallinen - Vocals, Keyboards (ex-Vuolla)

(IMG:https://www.metal-archives.com/images/3/5/4/0/3540474006_photo.jpg?3118)


Technical info
(IMG:http://metalarea.org/images/spectrogram/2020_Oct/6091b41ca798a1a14fcdf0966c767392.png)
Input File: 08 - Bind Myself.mp3
Channels : 2
Sample Rate : 44100
Precision : 16-bit
Duration : 00:05:25.30 = 14345598 samples = 24397.3 CDDA sectors
File Size : 13.1M
Bit Rate : 322k
Sample Encoding: MPEG audio (layer I, II or III)
Comments :
Title=Bind Myself
Artist=Oblivion Beach
Album=Cold River Spell
Tracknumber=08
Year=2020
Genre=Gothic/Doom Metal



Register


Go to the top of the page
  Insert nick Quick quote
+Quote Post
 
Start new topic
Replies (1 - 1)
post Oct 19 2020, 17:06:48
Post #2

Маньяк
**********
Group: Металариец
Posts: 1,342
Releases: 0
From: Russian Federation - St.Petersburg
On Forums: 11 years 7 months
Thanks: 342 time(s)
Russian Federation


Мелодии и фемале вроде ок, но без хриповастого мужичка на подпевке как-то совсем не то! (IMG:style_emoticons/default/13.gif)
Go to the top of the page
  Insert nick Quick quote
+Quote Post

Reply to this topicStart new topic
1 User(s) are reading this topic (1 Guests and 0 Anonymous Users)
0 Members:

 



- Lo-Fi Version Support form
Copyrights and abuse reports form
Time is now: 30th October 2020 - 08:09:44