Welcome Guest ( Log In | Register )

> Releases Upload / Добавление релизов

Добавить релиз тут / Click here to add release
Рекомендованные обменники / Recommended file shares

 
Reply to this topicStart new topic
> Woeful Echo - Dampening Existence (2020), Atmospheric/Depressive Black Metal (D4)
post Oct 16 2020, 17:36:44
Post #1

Правь статус, ####!111
**************
Group: Металариец
Posts: 23,989
Releases: 16861
From: Г.Харьков
On Forums: 8 years 6 months
Thanks: 321263 time(s)
Unknown


(IMG:https://metalarea.org/images/audiocovers/2020_Oct/acov_tid342651_thumb.jpg)

*Artist: Woeful Echo
*Album: Dampening Existence
*Year: 2020
*Genre: Atmospheric/Depressive Black Metal
*Country: United States (IMG:https://metalarea.org/forum/style_images/flags/United%20States.png)
*Format: mp3@CBR320kbps
*Size: 90MB

Tracklist:
01. Apostles Of Nihilism
02. Delusions Of Grandeur
03. The Silence Of God
04. Dampening Existence
05. Pits Of Ignorance
06. Walking Among The Depraved
07. Chained To Walls Of Doubt
08. Between Layers Of Ether
09. Untouched Stone In The Desert
10. Dreaming Of Unrest
******************************
Total playing time: 38:47




Extended info
D. All instruments, Vocals
See also: Anomaly in Effigy, Astral Projection, Lilin, Necrosadist, Shitestrom, Strigoi VII, Stygian Vacuity, Succorbenoth, Tryblith, ex-Arsh Anubis, ex-Dark Monarchy, ex-EmptyLife, ex-Sorrow Lasts, ex-Mercuric


Technical info
(IMG:https://metalarea.org/images/spectrogram/2020_Oct/7dcf1977b788e67306ad951912193897.png)
Input File: 04 Dampening Existence.mp3
Channels : 2
Sample Rate : 44100
Precision : 16-bit
Duration : 00:04:00.08 = 10587440 samples = 18005.9 CDDA sectors
File Size : 9.72M
Bit Rate : 324k
Sample Encoding: MPEG audio (layer I, II or III)
Comments :
Title=Dampening Existence
Artist=Woeful Echo
Album=Dampening Existence
Tracknumber=04
Year=2020



Register


Go to the top of the page
  Insert nick Quick quote
+Quote Post
post Oct 18 2020, 17:07:57
Post #2

Правь статус, ####!111
**************
Group: Металариец
Posts: 3,312
Releases: 10
From: Dnipro
On Forums: 12 years 4 months
Thanks: 1199 time(s)
Ukraine


Кстати очень и очень не плохо. Depressive не услышал, может по текстам что есть, а так просто добротный Black Metal.
Go to the top of the page
  Insert nick Quick quote
+Quote Post
post Nov 1 2020, 08:36:09
Post #3

Group: Подсевший
Posts: 47
Releases: 1
On Forums: 11 years 2 weeks
Thanks: 24 time(s)
Moldova


Different from their previous releases but still sounds very powerful.
Go to the top of the page
  Insert nick Quick quote
+Quote Post

Reply to this topicStart new topic
1 User(s) are reading this topic (1 Guests and 0 Anonymous Users)
0 Members:

 



- Lo-Fi Version Support form
Copyrights and abuse reports form
Time is now: 29th November 2020 - 18:25:02