Welcome Guest ( Log In | Register )

> Releases Upload / Добавление релизов

Добавить релиз тут / Click here to add release
Рекомендованные обменники / Recommended file shares

 
Reply to this topicStart new topic
> Perennial Quest - Perennial Quest [ep] (2020), Power Metal
post Oct 16 2020, 17:48:53
Post #1

Правь статус, ####!111
**************
Group: Металариец
Posts: 3,157
Releases: 2835
From: Одесса
On Forums: 12 years 4 months
Thanks: 28303 time(s)
Ukraine


(IMG:http://metalarea.org/images/audiocovers/2020_Oct/acov_tid342652_thumb.jpg)

*Artist: Perennial Quest
*Album: Perennial Quest [ep]
*Year: 2020
*Genre: Power Metal
*Country: United States (IMG:http://metalarea.org/forum/style_images/flags/United%20States.png)
*Format: mp3@CBR320kbps
*Size: 66MB

Tracklist:
1. Twisted Circuits 06:28
2. Beyond the Light 07:33
3. The Immortal Sons 05:56
4. Nightmare Horizons 07:35
******************************
Total playing time: 27:32



Extended info
Line - up:

Davy Allen - Guitars (ex-NightSlasher)
Ben Sharon - Bass
Kevin "Tank" Ordway - Drums (ex-NightSlasher)
Andrew Matarazzo - Guitars (ex-NightSlasher)
Sam Jewell - Guitars (ex-NightSlasher)
Tony DiBiase - Vocals (lead)

(IMG:https://www.metal-archives.com/images/3/5/4/0/3540435184_photo.jpg?4704)


Technical info
(IMG:http://metalarea.org/images/spectrogram/2020_Oct/ec2a35a0fdae6e4fa3cf2c4e35631e6a.png)
Input File: 04 - Nightmare Horizons.mp3
Channels : 2
Sample Rate : 44100
Precision : 16-bit
Duration : 00:07:35.26 = 20077142 samples = 34144.8 CDDA sectors
File Size : 18.2M
Bit Rate : 320k
Sample Encoding: MPEG audio (layer I, II or III)
Comments :
Title=Nightmare Horizons
Artist=Perennial Quest
Album=Perennial Quest (EP)
Tracknumber=4
Year=2020
Genre=Power Metal



Register


Go to the top of the page
  Insert nick Quick quote
+Quote Post

Reply to this topicStart new topic
1 User(s) are reading this topic (1 Guests and 0 Anonymous Users)
0 Members:

 



- Lo-Fi Version Support form
Copyrights and abuse reports form
Time is now: 30th October 2020 - 08:22:26