Welcome Guest ( Log In | Register )

> Releases Upload / Добавление релизов

Добавить релиз тут / Click here to add release
Рекомендованные обменники / Recommended file shares

 
Reply to this topicStart new topic
> Saltas - The Seize | Opus Ii (2020), Horror Ambient/Drone Doom Metal (D4)
post Oct 16 2020, 18:08:48
Post #1

Правь статус, ####!111
**************
Group: Металариец
Posts: 23,570
Releases: 16504
From: Г.Харьков
On Forums: 8 years 5 months
Thanks: 311403 time(s)
Unknown


(IMG:https://metalarea.org/images/audiocovers/2020_Oct/acov_tid342654_thumb.jpg)

*Artist: Saltas
*Album: The Seize | Opus Ii
*Year: 2020
*Genre: Horror Ambient/Drone Doom Metal
*Country: Sweden (IMG:https://metalarea.org/forum/style_images/flags/Sweden.png)
*Format: mp3@CBR320kbps
*Size: 80MB

Tracklist:
1. Step 1 - Disease 11:55
2. Step 2 - Decease 08:08
3. Step 3 - The Seize 14:35
******************************
Total playing time: 34:38




Extended info
C.J. Vocals, Drums
See also: Gravfraktal, ex-Church Bizarre, ex-Funeral, ex-Karnarium, ex-Pagan Rites, ex-Cerekloth
N.R. Vocals, Guitars
See also: Domedag, Gravfraktal, Runemagick, Sacramentum, The Funeral Orchestra, Necrocurse, ex-Bells of Doom, ex-Masticator, ex-Rapid Terrör, ex-Heavydeath, ex-Swordmaster, Den Tunga Döden, Utter Obscurity, ex-Deathwitch, ex-Varulv


Technical info
(IMG:https://metalarea.org/images/spectrogram/2020_Oct/0f51402ae6e93ee26c7f5c8b78889e74.png)
Input File: 02 - Step 2 Decease.mp3
Channels : 2
Sample Rate : 44100
Precision : 16-bit
Duration : 00:08:08.00 = 21520800 samples = 36600 CDDA sectors
File Size : 19.7M
Bit Rate : 323k
Sample Encoding: MPEG audio (layer I, II or III)
Comments :
Title=Step 2 Decease
Artist=Saltas
Album=The Seize (Opus II)
Tracknumber=2
Year=2020-16-10
Discnumber=1



Register


Go to the top of the page
  Insert nick Quick quote
+Quote Post

Reply to this topicStart new topic
1 User(s) are reading this topic (1 Guests and 0 Anonymous Users)
0 Members:

 



- Lo-Fi Version Support form
Copyrights and abuse reports form
Time is now: 30th October 2020 - 08:34:41