Welcome Guest ( Log In | Register )

> Releases Upload / Добавление релизов

Добавить релиз тут / Click here to add release
Рекомендованные обменники / Recommended file shares

 
Reply to this topicStart new topic
> Leshen - Of Cosmos: Creation & Chaos [ep] (2020), Progressive/Thrash Metal
post Oct 16 2020, 18:20:42
Post #1

Правь статус, ####!111
**************
Group: Металариец
Posts: 3,383
Releases: 3053
From: Одесса
On Forums: 12 years 6 months
Thanks: 31319 time(s)
Ukraine


(IMG:http://metalarea.org/images/audiocovers/2020_Oct/acov_tid342655_thumb.jpg)

*Artist: Leshen
*Album: Of Cosmos: Creation & Chaos [ep]
*Year: 2020
*Genre: Progressive/Thrash Metal
*Country: United States (IMG:http://metalarea.org/forum/style_images/flags/United%20States.png)
*Format: mp3@CBR320kbps
*Size: 61MB

Tracklist:
1. The Cold Chill of Eternity
2. The Infinite Has Become Infant
3. Nihilistic Cosmic Horror
4. The War of Light
5. The Patterns of Destiny
******************************
Total playing time: 25:37



Extended info
Line - up:

John Hoelscher - Bass
Frank Hernandez - Drums
Joshua Payne - Guitars (Epyon, ex-Judicator)
Jordan Lunsford - Guitars
Gabe Rodriguez - Guitars (Epyon)
Michelle Raelyn - Vocals

(IMG:https://www.metal-archives.com/images/3/5/4/0/3540437985_photo.jpg?1116)


Technical info
(IMG:http://metalarea.org/images/spectrogram/2020_Oct/654c7780a5bd222b3f0480b732ce3742.png)
Input File: 01 - The Cold Chill of Eternity.mp3
Channels : 2
Sample Rate : 44100
Precision : 16-bit
Duration : 00:03:44.30 = 9891718 samples = 16822.6 CDDA sectors
File Size : 8.98M
Bit Rate : 320k
Sample Encoding: MPEG audio (layer I, II or III)
Comments :
Title=The Cold Chill of Eternity
Artist=Leshen
Album=Of Cosmos: Creation & Chaos
Tracknumber=1
Year=2020
Genre=Progressive/Thrash Metal



Register


Go to the top of the page
  Insert nick Quick quote
+Quote Post

Reply to this topicStart new topic
1 User(s) are reading this topic (1 Guests and 0 Anonymous Users)
0 Members:

 



- Lo-Fi Version Support form
Copyrights and abuse reports form
Time is now: 4th December 2020 - 12:53:53