Welcome Guest ( Log In | Register )

> Releases Upload / Добавление релизов

Добавить релиз тут / Click here to add release
Рекомендованные обменники / Recommended file shares

> Victorius - Rise From The Flames (2020), Heavy/Power Metal (D8)
post Oct 16 2020, 19:23:32
Post #1

Правь статус, ####!111
**************
Group: Металариец
Posts: 3,157
Releases: 2835
From: Одесса
On Forums: 12 years 4 months
Thanks: 28302 time(s)
Ukraine


(IMG:http://metalarea.org/images/audiocovers/2020_Oct/acov_tid342657_thumb.jpg)

*Artist: Victorius
*Album: Rise From The Flames
*Year: 2020
*Genre: Heavy/Power Metal
*Country: United Kingdom (IMG:http://metalarea.org/forum/style_images/flags/United%20Kingdom.png)
*Format: mp3@CBR320kbps
*Size: 127MB

Tracklist:
1. Breaking Down the Walls 06:17
2. Silver Bullet 04:50
3. Chains of Insanity 05:08
4. To the Death 06:51
5. Bleed for Me 08:49
6. Prepare to Rock 06:24
7. Who We Are 06:40
8. Rise from the Flames 09:13
******************************
Total playing time: 54:12



Extended info
Line - up:

Ryan Shepherd - Drums (ex-Excellent Cadaver, ex-Achren, ex-Virus, ex-Darkened Place, ex-Pariah)
John "Snake" Brandon - Guitars, Vocals (Pariah, ex-Excellent Cadaver, ex-Divinity, ex-The Burning Chapel)
John Gibbons - Bass (ex-Pariah, ex-Ramp)
Stewart Kennedy - Guitars

(IMG:https://www.metal-archives.com/images/8/7/8/1/87817_photo.jpg?5831)


Technical info
(IMG:http://metalarea.org/images/spectrogram/2020_Oct/837ff7e37917cca20efaead033ffac4e.png)
Input File: 08. Rise From the Flames.mp3
Channels : 2
Sample Rate : 44100
Precision : 16-bit
Duration : 00:09:13.78 = 24421566 samples = 41533.3 CDDA sectors
File Size : 22.2M
Bit Rate : 321k
Sample Encoding: MPEG audio (layer I, II or III)
Comments :
Title=Rise From the Flames
Artist=Victorius
Album=Rise From the Flames
Tracknumber=8
Year=2020
Genre=Heavy/Power Metal



Register


Go to the top of the page
  Insert nick Quick quote
+Quote Post
 
Start new topic
Replies (1 - 1)
post Oct 18 2020, 01:04:24
Post #2

Слава всем нам,например!
**************
Group: Металариец
Posts: 2,511
Releases: 33
From: Русская Москва
On Forums: 14 years 4 months
Thanks: 1351 time(s)
Russian Federation


Унылое музло,унылый вокалист.
Go to the top of the page
  Insert nick Quick quote
+Quote Post

Reply to this topicStart new topic
1 User(s) are reading this topic (1 Guests and 0 Anonymous Users)
0 Members:

 



- Lo-Fi Version Support form
Copyrights and abuse reports form
Time is now: 30th October 2020 - 08:00:25