Welcome Guest ( Log In | Register )

> Releases Upload / Добавление релизов

Добавить релиз тут / Click here to add release
Рекомендованные обменники / Recommended file shares

 
Reply to this topicStart new topic
> Quitters - Man (2020), Sludge/Doom Metal
post Oct 16 2020, 19:42:22
Post #1

Правь статус, ####!111
**************
Group: Металариец
Posts: 3,149
Releases: 2828
From: Одесса
On Forums: 12 years 4 months
Thanks: 28204 time(s)
Ukraine


(IMG:http://metalarea.org/images/audiocovers/2020_Oct/acov_tid342658_thumb.jpg)

*Artist: Quitters
*Album: Man
*Year: 2020
*Genre: Sludge/Doom Metal
*Country: Denmark (IMG:http://metalarea.org/forum/style_images/flags/Denmark.png)
*Format: mp3@CBR320kbps
*Size: 80MB

Tracklist:
1. I Am Weak 02:37
2. Under My Skin 02:40
3. Share My Fear 03:02
4. Earthly Delights 02:41
5. Down in the Mud 03:58
6. Nuclear Breeze 03:08
7. You Disgust Me 03:01
8. Paranoid 04:13
9. Lie to Me 03:07
10. Imaginary Friends 05:02
******************************
Total playing time: 33:29



Extended info


Technical info
(IMG:http://metalarea.org/images/spectrogram/2020_Oct/a25f9c076b9bfe7edb5eca84e4d08064.png)
Input File: 06. Nuclear Breeze.mp3
Channels : 2
Sample Rate : 44100
Precision : 16-bit
Duration : 00:03:08.12 = 8296136 samples = 14109.1 CDDA sectors
File Size : 7.59M
Bit Rate : 323k
Sample Encoding: MPEG audio (layer I, II or III)
Comments :
Title=Nuclear Breeze
Artist=Quitters
Album=Man
Tracknumber=6
Year=2020
Genre=Sludge/Doom Metal



Register


Go to the top of the page
  Insert nick Quick quote
+Quote Post

Reply to this topicStart new topic
1 User(s) are reading this topic (1 Guests and 0 Anonymous Users)
0 Members:

 



- Lo-Fi Version Support form
Copyrights and abuse reports form
Time is now: 27th October 2020 - 10:46:21