Welcome Guest ( Log In | Register )

> Releases Upload / Добавление релизов

Добавить релиз тут / Click here to add release
Рекомендованные обменники / Recommended file shares

 
Reply to this topicStart new topic
> Albionic Hermeticism & Decoherence - Albionic Hermeticism/Decoherence [split] (2020), Black Metal | Black Metal (D11)
post Oct 16 2020, 21:35:05
Post #1

Правь статус, ####!616
**************
Group: Металариец
Posts: 5,337
Releases: 3871
From: 55°35’N 38°08’E
On Forums: 12 years 3 months
Thanks: 72544 time(s)
Unknown


(IMG:https://metalarea.org/images/audiocovers/2020_Oct/acov_tid342659_thumb.jpg)

*Artist: Albionic Hermeticism & Decoherence
*Album: Albionic Hermeticism/Decoherence [split]
*Year: 2020
*Genre: Black Metal | Black Metal
*Country: United Kingdom (IMG:https://metalarea.org/forum/style_images/flags/United%20Kingdom.png) | United Kingdom (IMG:https://metalarea.org/forum/style_images/flags/United%20Kingdom.png)
*Format: mp3@CBR320kbps
*Size: 82MB

Tracklist:
Albionic Hermeticism:
1.A Numinous Shropshire Moor 10:17
2.Fléogande Fláne 06:54
Decoherence:
3.Level Repulsion 13:03
4.Constructive Interference 05:41
******************************
Total playing time: 35:55



Technical info
(IMG:https://metalarea.org/images/spectrogram/2020_Oct/face32e1fad77f1f6fc037105a7f48e0.png)
Input File: 01 Albionic Hermeticism - A Numinous Shropshire Moor.mp3
Channels : 2
Sample Rate : 44100
Precision : 16-bit
Duration : 00:10:17.60 = 27236072 samples = 46319.9 CDDA sectors
File Size : 24.8M
Bit Rate : 321k
Sample Encoding: MPEG audio (layer I, II or III)
Comments :
Title=A Numinous Shropshire Moor
Artist=Albionic Hermeticism
Album=Albionic Hermeticism / Decoherence
Tracknumber=1
Year=2020
Genre=Black Metal



Register


Go to the top of the page
  Insert nick Quick quote
+Quote Post

Reply to this topicStart new topic
1 User(s) are reading this topic (1 Guests and 0 Anonymous Users)
0 Members:

 



- Lo-Fi Version Support form
Copyrights and abuse reports form
Time is now: 30th October 2020 - 08:07:18