Welcome Guest ( Log In | Register )

> Releases Upload / Добавление релизов

Добавить релиз тут / Click here to add release
Рекомендованные обменники / Recommended file shares

> Albionic Hermeticism & Ynkleudherhenavogyon - Swēsaz Ambos [split] (2020), Black Metal | Black Metal (D5)
post Oct 16 2020, 21:45:58
Post #1

Правь статус, ####!616
**************
Group: Металариец
Posts: 5,337
Releases: 3871
From: 55°35’N 38°08’E
On Forums: 12 years 3 months
Thanks: 72544 time(s)
Unknown


(IMG:https://metalarea.org/images/audiocovers/2020_Oct/acov_tid342660_thumb.jpg)

*Artist: Albionic Hermeticism & Ynkleudherhenavogyon
*Album: Swēsaz Ambos [split]
*Year: 2020
*Genre: Black Metal | Black Metal
*Country: United Kingdom (IMG:https://metalarea.org/forum/style_images/flags/United%20Kingdom.png) | United Kingdom (IMG:https://metalarea.org/forum/style_images/flags/United%20Kingdom.png)
*Format: mp3@CBR320kbps
*Size: 135MB

Tracklist:
Albionic Hermeticism:
1.Cast Over Stone 11:09
2.Oh Asclepius, Guide Me 16:48
Ynkleudherhenavogyon:
3.Porthtowan Gwavos Omassaya 18:55
4.Honan Bleydh Garm Vresel 11:52
******************************
Total playing time: 58:44




Technical info
(IMG:https://metalarea.org/images/spectrogram/2020_Oct/04c5bdabfa175ae6e201fa5ad199fd63.png)
Input File: 01 Albionic Hermeticism - Cast Over Stone.mp3
Channels : 2
Sample Rate : 44100
Precision : 16-bit
Duration : 00:11:09.69 = 29533285 samples = 50226.7 CDDA sectors
File Size : 27.0M
Bit Rate : 322k
Sample Encoding: MPEG audio (layer I, II or III)
Comments :
Title=Cast Over Stone
Artist=Albionic Hermeticism
Album=Swēsaz Ambos
Tracknumber=1
Year=2020
Genre=Black Metal



Register


Go to the top of the page
  Insert nick Quick quote
+Quote Post
 
Start new topic
Replies (1 - 1)
post Oct 22 2020, 17:47:20
Post #2

Мегаманьяк
***********
Group: Металариец
Posts: 1,555
Releases: 14
From: Москва
On Forums: 12 years 6 months
Thanks: 988 time(s)
Antarctica


Демка и полноформат Albionic Hermetisicm были совершенно потрясающие. В духе работ Проктора, но и со своими фишечками. Надеюсь и на этих сплитах парень не подведёт.
Go to the top of the page
  Insert nick Quick quote
+Quote Post

Reply to this topicStart new topic
1 User(s) are reading this topic (1 Guests and 0 Anonymous Users)
0 Members:

 



- Lo-Fi Version Support form
Copyrights and abuse reports form
Time is now: 30th October 2020 - 08:31:23