Welcome Guest ( Log In | Register )

> Releases Upload / Добавление релизов

Добавить релиз тут / Click here to add release
Рекомендованные обменники / Recommended file shares

> Mörtual - Divine Monstrosity [ep] (2020), Death/Thrash Metal
post Oct 16 2020, 22:36:27
Post #1

Правь статус, ####!111
**************
Group: Металариец
Posts: 23,570
Releases: 16504
From: Г.Харьков
On Forums: 8 years 5 months
Thanks: 311390 time(s)
Unknown


(IMG:https://metalarea.org/images/audiocovers/2020_Oct/acov_tid342661_thumb.jpg)

*Artist: Mörtual
*Album: Divine Monstrosity [ep]
*Year: 2020
*Genre: Death/Thrash Metal
*Country: Costa Rica (IMG:https://metalarea.org/forum/style_images/flags/Costa%20Rica.png)
*Format: mp3@CBR320kbps
*Size: 75MB

Tracklist:
01. Necromancy Ritual 05:01
02. Dimensional Chaos 05:55
03. Master of Possession 03:55
04. Divine Monstrosity 04:47
05. Fiendish Visions (Bonus) 04:42
06. The Ancient God of the Earth (Bonus) 02:31
07. Condemned to Madness (Bonus) 03:24
******************************
Total playing time: 30:15



Extended info
Justin Corpse Guitars
See also: ex-Infidelis, ex-Gólgota
Samael (Magician) Drums (2016-present)
See also: ex-Sepulchrated
Master Killer Guitars (2016-present)
See also: ex-Sepulchrated, Master Killer
Carrnivean Bass (2020-present)
See also: Empire of the Silent Forest, Occisionis, Abysmal Hate, Goregoliath, ex-Abaddon, ex-Marturion, ex-Meguilloth, ex-Melovolo, ex-Tarmagante
Dago Fernandez Vocals (2020-present)
See also: Gólgota, Flesh Storm, ex-Devastation, ex-Massacre, ex-Carne Humana, ex-Acidex, ex-Alerta Roja, ex-Alzheimer, ex-Aspid, ex-Beyond of Hate, ex-Caca, ex-Cadaver, ex-Domingo Siete, ex-Eternal Torment, ex-Frentes Firmes, ex-Genital Desmembration, ex-Inquisition, ex-Intestinal Growls, ex-Masturbation Society, ex-Mortus Damned, ex-Qatastrofe, ex-Rapture, ex-Santa Violencia, ex-Sin Cultura, ex-Varduk



Technical info
(IMG:https://metalarea.org/images/spectrogram/2020_Oct/0e3a7aa4ab723a09d33a9abe354473ad.png)
Input File: 02 Dimensional Chaos.mp3
Channels : 2
Sample Rate : 44100
Precision : 16-bit
Duration : 00:05:55.21 = 15664585 samples = 26640.5 CDDA sectors
File Size : 15.0M
Bit Rate : 339k
Sample Encoding: MPEG audio (layer I, II or III)
Comments :
Title=Dimensional Chaos
Artist=Mortual
Album=Divine Monstrosity
Tracknumber=2/7
Year=2020-20-20
Genre=Metal
Discnumber=1/1



Register


Go to the top of the page
  Insert nick Quick quote
+Quote Post
 
Start new topic
Replies (1 - 1)
post Oct 17 2020, 13:48:58
Post #2

hearer & reader
**************
Group: Металариец
Posts: 9,109
Releases: 158
From: Moscow
On Forums: 13 years 1 month
Thanks: 9640 time(s)
Russian Federation


Go to the top of the page
  Insert nick Quick quote
+Quote Post

Reply to this topicStart new topic
1 User(s) are reading this topic (1 Guests and 0 Anonymous Users)
0 Members:

 



- Lo-Fi Version Support form
Copyrights and abuse reports form
Time is now: 30th October 2020 - 07:47:39