Welcome Guest ( Log In | Register )

> Releases Upload / Добавление релизов

Добавить релиз тут / Click here to add release
Рекомендованные обменники / Recommended file shares

 
Reply to this topicStart new topic
> Psychalgia & Potemtum And Solitude & Syndrom Einsamkeit & Coldnight - Coldnight/Potemtum And Solitude/Psychalgia/Syndrom Einsamkeit [split] (2018), Depressive Black Metal | Depressive Black Metal | Depressive Black Met
post Oct 16 2020, 22:53:36
Post #1

Правь статус, ####!616
**************
Group: Металариец
Posts: 5,337
Releases: 3871
From: 55°35’N 38°08’E
On Forums: 12 years 3 months
Thanks: 72544 time(s)
Unknown


(IMG:https://metalarea.org/images/audiocovers/2020_Oct/acov_tid342662_thumb.jpg)

*Artist: Psychalgia & Potemtum And Solitude & Syndrom Einsamkeit & Coldnight
*Album: Coldnight/Potemtum And Solitude/Psychalgia/Syndrom Einsamkeit [split]
*Year: 2018
*Genre: Depressive Black Metal | Depressive Black Metal | Depressive Black Metal | Depressive Black Metal
*Country: International (IMG:https://metalarea.org/forum/style_images/flags/International.png) | Colombia (IMG:https://metalarea.org/forum/style_images/flags/Colombia.png) | Germany (IMG:https://metalarea.org/forum/style_images/flags/Germany.png) | Colombia (IMG:https://metalarea.org/forum/style_images/flags/Colombia.png)
*Format: mp3@CBR320kbps
*Size: 134MB

Tracklist:
Psychalgia:
1.Expulsion 07:10
2.Freedom 05:48
3.Vocamus Chaos 05:34
Potemtum and Solitude:
4.Leave Me! 06:17
5.Lilian... 04:44
6.Nightmare 05:52
Syndrom Einsamkeit:
7.Unendlichkeit 03:45
8.Der Tod 05:27
9.Uralte Gedanken 03:29
Coldnight:
10.Apophenia 04:01
11.Water Stone Tomb 06:50
******************************
Total playing time: 58:57



Technical info
(IMG:https://metalarea.org/images/spectrogram/2020_Oct/0a7712def2253f8aa628f2145cc0a855.png)
Input File: 01 Expulsion (Psychalgia).mp3
Channels : 2
Sample Rate : 44100
Precision : 16-bit
Duration : 00:07:10.29 = 18975745 samples = 32271.7 CDDA sectors
File Size : 17.3M
Bit Rate : 322k
Sample Encoding: MPEG audio (layer I, II or III)
Comments :
Title=Expulsion (Psychalgia)
Artist=Psychalgia/Potemtum And Solitude/Syndrom Einsamkeit/Coldnight
Album=Psychalgia/Potemtum And Solitude/Syndrom Einsamkeit/Coldnight Split
Tracknumber=1
Year=2018
Genre=Depressive Black Metal



Register


Go to the top of the page
  Insert nick Quick quote
+Quote Post

Reply to this topicStart new topic
1 User(s) are reading this topic (1 Guests and 0 Anonymous Users)
0 Members:

 



- Lo-Fi Version Support form
Copyrights and abuse reports form
Time is now: 30th October 2020 - 08:43:24