Welcome Guest ( Log In | Register )

> Releases Upload / Добавление релизов

Добавить релиз тут / Click here to add release
Рекомендованные обменники / Recommended file shares

> Totenrune - Towards The Universe (2020), Black Metal
post Oct 17 2020, 00:27:57
Post #1

Правь статус, ####!616
**************
Group: Металариец
Posts: 5,332
Releases: 3862
From: 55°35’N 38°08’E
On Forums: 12 years 3 months
Thanks: 72377 time(s)
Unknown


(IMG:https://metalarea.org/images/audiocovers/2020_Oct/acov_tid342663_thumb.jpg)

*Artist: Totenrune
*Album: Towards The Universe
*Year: 2020
*Genre: Black Metal
*Country: Ukraine (IMG:https://metalarea.org/forum/style_images/flags/Ukraine.png)
*Format: mp3@CBR320kbps
*Size: 69MB

Tracklist:
1.Forest Captive 04:35
2.Ice-Cold Breath 04:20
3.Towards The Universe 05:52
4.Eternal 05:06
5.Death Rune 05:19
6.Hall Of Lightning 04:38
******************************
Total playing time: 29:50




Technical info
(IMG:https://metalarea.org/images/spectrogram/2020_Oct/e9a8a74442bf7f8460d279fdee1336e3.png)
Input File: 01 Forest Captive.mp3
Channels : 2
Sample Rate : 44100
Precision : 16-bit
Duration : 00:04:35.05 = 12129749 samples = 20628.8 CDDA sectors
File Size : 11.2M
Bit Rate : 324k
Sample Encoding: MPEG audio (layer I, II or III)
Comments :
Title=Forest Captive
Artist=Totenrune
Album=Towards The Universe
Tracknumber=1
Year=2020
Genre=Black Metal



Register


Go to the top of the page
  Insert nick Quick quote
+Quote Post
 
Start new topic
Replies (1 - 6)
post Oct 18 2020, 11:09:45
Post #2

Zero Tolerance
****
Group: Металариец
Posts: 302
Releases: 0
On Forums: 8 years 1 month
Thanks: 50 time(s)
Unknown


Среднестатистический посредственный укроблэкмитал.
Go to the top of the page
  Insert nick Quick quote
+Quote Post
post Oct 23 2020, 08:03:51
Post #3

Девять Литров
*********
Group: Металариец
Posts: 988
Releases: 0
From: Новосибирск
On Forums: 11 years 1 month
Thanks: 274 time(s)
Russian Federation


ЦИТАТА(Vitald @ Oct 18 2020, 17:09:45) *
Среднестатистический посредственный укроблэкмитал.


А несреднестатистический непосредственный укроблэкмитал это у нас кто? Люсифугум, что ли? (IMG:style_emoticons/default/smile3.gif)
Go to the top of the page
  Insert nick Quick quote
+Quote Post
post Oct 23 2020, 09:41:39
Post #4

Zero Tolerance
****
Group: Металариец
Posts: 302
Releases: 0
On Forums: 8 years 1 month
Thanks: 50 time(s)
Unknown


Люцифугум последний раз слушал ещё на ламповом гаджете, на убитой подвальной кассете. Переслушав бы даже сейчас в лосе - мнение вряд ли изменилось бы. Ни о чём.
Go to the top of the page
  Insert nick Quick quote
+Quote Post
post Oct 23 2020, 09:45:13
Post #5

The Angel Of Death
**************
Group: Металариец
Posts: 5,726
Releases: 49
From: Луганск, 13 регион, экс-404
On Forums: 14 years 11 months
Thanks: 1894 time(s)
Papua New Guinea


ЦИТАТА(Vitald @ 18th October 2020 - 13:09:45) *
Среднестатистический посредственный укроблэкмитал.

(IMG:style_emoticons/default/m1234.gif)
Go to the top of the page
  Insert nick Quick quote
+Quote Post
post Oct 23 2020, 12:11:03
Post #6

Литр
*
Group: Подсевший
Posts: 71
Releases: 0
On Forums: 2 months 1 day
Thanks: 57 time(s)
Unknown


Просто проходной альбом, сейчас такого музла тонны и в цифре и на физ. носителях выпускаю все кому не лень. Вариант послушал-забыл (IMG:style_emoticons/default/21.gif)
Go to the top of the page
  Insert nick Quick quote
+Quote Post
post Oct 23 2020, 13:37:24
Post #7

The Angel Of Death
**************
Group: Металариец
Posts: 5,726
Releases: 49
From: Луганск, 13 регион, экс-404
On Forums: 14 years 11 months
Thanks: 1894 time(s)
Papua New Guinea


fixed
ЦИТАТА(noxspiritus @ 23rd October 2020 - 14:11:03) *
Вариант недослушал-забыл



Thanks:
Go to the top of the page
  Insert nick Quick quote
+Quote Post

Reply to this topicStart new topic
1 User(s) are reading this topic (1 Guests and 0 Anonymous Users)
0 Members:

 



- Lo-Fi Version Support form
Copyrights and abuse reports form
Time is now: 27th October 2020 - 09:52:29