Welcome Guest ( Log In | Register )

> Releases Upload / Добавление релизов

Добавить релиз тут / Click here to add release
Рекомендованные обменники / Recommended file shares

 
Reply to this topicStart new topic
> Ars Veneficium & Ulvdalir - In Death's Cold Embrace [split] (2019), Black Metal | Black Metal (D6)(D)
post Oct 17 2020, 01:34:37
Post #1

Правь статус, ####!616
**************
Group: Металариец
Posts: 5,337
Releases: 3871
From: 55°35’N 38°08’E
On Forums: 12 years 3 months
Thanks: 72544 time(s)
Unknown


(IMG:https://metalarea.org/images/audiocovers/2020_Oct/acov_tid342664_thumb.jpg)

*Artist: Ars Veneficium & Ulvdalir
*Album: In Death's Cold Embrace [split]
*Year: 2019
*Genre: Black Metal | Black Metal
*Country: Belgium (IMG:https://metalarea.org/forum/style_images/flags/Belgium.png) | Russian Federation (IMG:https://metalarea.org/forum/style_images/flags/Russian%20Federation.png)
*Format: mp3@CBR320kbps
*Size: 20MB

Tracklist:
Ars Veneficium:
1.A Thousand Weeping Angels 04:14
Ulvdalir:
2.Litany of Death 04:36
******************************
Total playing time: 8:50

Preview 1

Technical info
(IMG:https://metalarea.org/images/spectrogram/2020_Oct/9448c4f330ac5cbb1aecd37f4d33926c.png)
Input File: 02 Ulvdalir - Litany of Death.mp3
Channels : 2
Sample Rate : 44100
Precision : 16-bit
Duration : 00:04:37.05 = 12217773 samples = 20778.5 CDDA sectors
File Size : 11.1M
Bit Rate : 322k
Sample Encoding: MPEG audio (layer I, II or III)
Comments :
Title=Litany of Death
Artist=Ulvdalir
Album=In Death's Cold Embrace
Tracknumber=2
Year=2019
Genre=Black Metal



Register


Go to the top of the page
  Insert nick Quick quote
+Quote Post

Reply to this topicStart new topic
1 User(s) are reading this topic (1 Guests and 0 Anonymous Users)
0 Members:

 



- Lo-Fi Version Support form
Copyrights and abuse reports form
Time is now: 30th October 2020 - 08:55:03