Welcome Guest ( Log In | Register )

> Releases Upload / Добавление релизов

Добавить релиз тут / Click here to add release
Рекомендованные обменники / Recommended file shares

 
Reply to this topicStart new topic
> Occult Hand Order - The Chained That Burned The Wounded [ep] (2020), Stoner/Doom Metal
post Oct 17 2020, 06:56:22
Post #1

Правь статус, ####!111
**************
Group: Металариец
Posts: 3,157
Releases: 2835
From: Одесса
On Forums: 12 years 4 months
Thanks: 28303 time(s)
Ukraine


(IMG:http://metalarea.org/images/audiocovers/2020_Oct/acov_tid342665_thumb.jpg)

*Artist: Occult Hand Order
*Album: The Chained That Burned The Wounded [ep]
*Year: 2020
*Genre: Stoner/Doom Metal
*Country: France (IMG:http://metalarea.org/forum/style_images/flags/France.png)
*Format: mp3@CBR320kbps
*Size: 86MB

Tracklist:
1. Azazel
2. What Comes After Us
3. Wound
4. Edwin the Wise
5. Shore
******************************
Total playing time: 35:47



Extended info
Line - up:

Tony Duvillard - Drums
Nico Fabre - Guitars
Hugo Zepah - Vocals, Bass

(IMG:https://www.metal-archives.com/images/3/5/4/0/3540458673_photo.jpg?0927)


Technical info
(IMG:http://metalarea.org/images/spectrogram/2020_Oct/71f525ee5abb7e286d646b57d61f2d51.png)
Input File: 02. What Comes After Us.mp3
Channels : 2
Sample Rate : 44100
Precision : 16-bit
Duration : 00:07:11.52 = 19029900 samples = 32363.8 CDDA sectors
File Size : 17.3M
Bit Rate : 320k
Sample Encoding: MPEG audio (layer I, II or III)
Comments :
Title=What Comes After Us
Artist=Occult Hand Order
Album=The Chained The Burned The Wounded (EP)
Tracknumber=2
Year=2020
Genre=Stoner/Doom Metal



Register


Go to the top of the page
  Insert nick Quick quote
+Quote Post

Reply to this topicStart new topic
1 User(s) are reading this topic (1 Guests and 0 Anonymous Users)
0 Members:

 



- Lo-Fi Version Support form
Copyrights and abuse reports form
Time is now: 30th October 2020 - 08:06:02