Welcome Guest ( Log In | Register )

> Releases Upload / Добавление релизов

Добавить релиз тут / Click here to add release
Рекомендованные обменники / Recommended file shares

> Bipolar Disorder - Mysterious Pain (2020), Doom/Death Metal
post Oct 17 2020, 11:14:49
Post #1

Правь статус, ####!111
**************
Group: Металариец
Posts: 23,532
Releases: 16462
From: Г.Харьков
On Forums: 8 years 5 months
Thanks: 310410 time(s)
Unknown


(IMG:https://metalarea.org/images/audiocovers/2020_Oct/acov_tid342670_thumb.jpg)

*Artist: Bipolar Disorder
*Album: Mysterious Pain
*Year: 2020
*Genre: Doom/Death Metal
*Country: Hungary (IMG:https://metalarea.org/forum/style_images/flags/Hungary.png)
*Format: mp3@CBR320kbps
*Size: 115MB

Tracklist:
1. Nobody's Tears 14:09
2. Mysterious Pain 17:15
3. Ancient Instinct 19:19
******************************
Total playing time: 50:43




Extended info
Tøth Jøzsef Everything
See also: Degragore, Dipylidium Caninum, Liquid Cemetery, Nekrofília
Sütő Gábor Vocals (2020-present)
See also: Degragore, King Furia


Technical info
(IMG:https://metalarea.org/images/spectrogram/2020_Oct/f3eff65f6a2cdbb5cd2a2f33639b0725.png)
Input File: 02 - Mysterious Pain.mp3
Channels : 2
Sample Rate : 44100
Precision : 16-bit
Duration : 00:17:15.13 = 45649365 samples = 77635 CDDA sectors
File Size : 41.5M
Bit Rate : 320k
Sample Encoding: MPEG audio (layer I, II or III)
Comments :
Title=Mysterious Pain
Artist=Bipolar Disorder
Album=Mysterious Pain
Tracknumber=2
Year=2020



Register


Go to the top of the page
  Insert nick Quick quote
+Quote Post
 
Start new topic
Replies (1 - 4)
post Oct 17 2020, 16:02:39
Post #2

грызущие вместе
*****
Group: Металариец
Posts: 427
Releases: 0
From: Moscow/MO
On Forums: 13 years 11 months
Thanks: 140 time(s)
Russian Federation


Такое себе название для группы, конечно
(IMG:https://sun9-51.userapi.com/gfTu5HK2X_X9C9843aznlWUCP0glUHZxe5uFAQ/bsMirYJ6__4.jpg)
Go to the top of the page
  Insert nick Quick quote
+Quote Post
post Oct 17 2020, 20:50:04
Post #3

Два Литра
**
Group: Завсегдатай
Posts: 175
Releases: 0
On Forums: 2 years 8 months
Thanks: 72 time(s)
Belarus


Название полностью соответствует содержанию. Психопатический бред, а не Doom Death Metal.


Thanks:
(1) krotovich,
Go to the top of the page
  Insert nick Quick quote
+Quote Post
post Oct 18 2020, 12:18:55
Post #4

Чёткий пацан из Автово...
Group Icon
Group: V.I.P
Posts: 9,103
Releases: 35
From: Город над вольной Невой...
On Forums: 14 years 4 months
Thanks: 4513 time(s)
Russian Federation


Крайне нестандартный материал! (IMG:style_emoticons/default/metaler.gif) Местами больной, местами прямо-таки очень музыкальный. Никакого, конечно же, "психопатического бреда" не замечено.
Все композиции построены по одному и тому же принципу: половина трека (вступление) - это красивый эмбиент, вторая же часть - достаточно качёвый (даже гипнотичный (IMG:style_emoticons/default/1488.gif) ) мелодик-дум-дэт, духа Целестиал Сизон 90-ых.
К минусам отнесу вокал - отстойный недогроул-недоскрим. А всё остальное - вполне интересно. Биполярный концепт ясен)
Go to the top of the page
  Insert nick Quick quote
+Quote Post
post Oct 18 2020, 12:24:50
Post #5

Девять Литров
*********
Group: Металариец
Posts: 963
Releases: 0
On Forums: 8 years 10 months
Thanks: 148 time(s)
Ukraine


ЦИТАТА(Bloodn Lord @ 18th October 2020 - 12:18:55) *
вполне интересно
Полное безвкусное музло
Go to the top of the page
  Insert nick Quick quote
+Quote Post

Reply to this topicStart new topic
2 User(s) are reading this topic (2 Guests and 0 Anonymous Users)
0 Members:

 



- Lo-Fi Version Support form
Copyrights and abuse reports form
Time is now: 27th October 2020 - 10:43:26