Welcome Guest ( Log In | Register )

> Releases Upload / Добавление релизов

Добавить релиз тут / Click here to add release
Рекомендованные обменники / Recommended file shares

> Suffocate The Skies - Heathenwulf (2020), Symphonic/Melodic Death Metal
post Oct 17 2020, 11:30:24
Post #1

Правь статус, ####!111
**************
Group: Металариец
Posts: 23,570
Releases: 16504
From: Г.Харьков
On Forums: 8 years 5 months
Thanks: 311394 time(s)
Unknown


(IMG:https://metalarea.org/images/audiocovers/2020_Oct/acov_tid342671_thumb.jpg)

*Artist: Suffocate The Skies
*Album: Heathenwulf
*Year: 2020
*Genre: Symphonic/Melodic Death Metal
*Country: United States (IMG:https://metalarea.org/forum/style_images/flags/United%20States.png)
*Format: mp3@CBR320kbps
*Size: 67MB

Tracklist:
1. Ritual of Autumn 03:26
2. Requiem for the Lost 04:33
3. The Apparition 03:23
4. Snowbound Elegy 03:08
5. Forged in Flame 03:19
6. Insidious 02:40
7. Heathenwulf 04:45
8. Dawn of Solace 03:43
******************************
Total playing time: 28:57




Extended info
Drake Lank Bass
See also: ex-Sanctus Infernum (live)
Johnny Meyer Drums
Zeb Hayes Guitars
See also: Torrent (live)
Matt Sikes Guitars
See also: Torrent, ex-Malum
Howard Jones Viola
See also: Sanctus Infernum
Tyler Davis Vocals
See also: ex-Malum



Technical info
(IMG:https://metalarea.org/images/spectrogram/2020_Oct/645edfcd6664348d4c4727db32980da2.png)
Input File: 07 - Heathenwulf.mp3
Channels : 2
Sample Rate : 44100
Precision : 16-bit
Duration : 00:04:45.59 = 12594343 samples = 21419 CDDA sectors
File Size : 11.6M
Bit Rate : 325k
Sample Encoding: MPEG audio (layer I, II or III)
Comments :
Title=Heathenwulf
Artist=Suffocate the Skies
Album=Heathenwulf
Tracknumber=7
Year=2020



Register


Go to the top of the page
  Insert nick Quick quote
+Quote Post
 
Start new topic
Replies (1 - 2)
post Oct 18 2020, 15:13:39
Post #2

Литр
*
Group: Подсевший
Posts: 92
Releases: 0
On Forums: 1 year 10 months
Thanks: 21 time(s)
Russian Federation


Первые минуты прослушивания альбома дали ясно понять, что это есть годнота во всех аспектах и смыслах. В особенности хочется отметить качество звука. Звук здесь предельно чёткий, хрустально ясный, алмазно гранёный.


Thanks:
Go to the top of the page
  Insert nick Quick quote
+Quote Post
post Oct 19 2020, 01:50:50
Post #3

Два Литра
**
Group: Завсегдатай
Posts: 194
Releases: 0
From: Москва
On Forums: 14 years 6 days
Thanks: 49 time(s)
Russian Federation


"Хотели как лучше, а получилось как всегда" (с)


Thanks:
(1) Andrew,
Go to the top of the page
  Insert nick Quick quote
+Quote Post

Reply to this topicStart new topic
1 User(s) are reading this topic (1 Guests and 0 Anonymous Users)
0 Members:

 



- Lo-Fi Version Support form
Copyrights and abuse reports form
Time is now: 30th October 2020 - 08:04:38