Welcome Guest ( Log In | Register )

> Glaistig - Demo I [demo] (2020), Raw Black Metal
post Oct 17 2020, 20:50:29
Post #1

Malum dominus omnium
***
Group: Завсегдатай
Posts: 233
Releases: 155
On Forums: 1 year 1 week
Thanks: 3051 time(s)
Vatican City


(IMG:https://metalarea.org/images/audiocovers/2020_Oct/acov_tid342686_thumb.jpg)

*Artist: Glaistig
*Album: Demo I [demo]
*Year: 2020
*Genre: Raw Black Metal
*Country: United States (IMG:https://metalarea.org/forum/style_images/flags/United%20States.png)
*Format: mp3@CBR320kbps
*Size: 37MB

Tracklist:
1. Traverse Through the Light 06:01
2. Coven of the Trees 05:00
3. Galactic Winds of Everflowing Magic 04:48
******************************
Total playing time: 15:49

Metal Archives
(IMG:https://metalarea.org/images/youtube.png)

Technical info
(IMG:https://metalarea.org/images/spectrogram/2020_Oct/dcbba77ac3ef6a8a43c03084f96c08ab.png)
Input File: 01 Glaistig - Traverse Through The Light.mp3
Channels : 2
Sample Rate : 48000
Precision : 16-bit
Duration : 00:06:01.63 = 17358336 samples ~ 27122.4 CDDA sectors
File Size : 14.5M
Bit Rate : 320k
Sample Encoding: MPEG audio (layer I, II or III)



Register


Go to the top of the page
  Insert nick Quick quote
+Quote Post
 
Start new topic
Replies (1 - 2)
post Nov 19 2020, 14:24:05
Post #2

добрый мизантроп
**************
Group: Металариец
Posts: 2,064
Releases: 1
From: Минск
On Forums: 10 years 3 months
Thanks: 992 time(s)
Madagascar


Nice Melodic ABM, bit rusty
Go to the top of the page
  Insert nick Quick quote
+Quote Post
post Jan 15 2021, 09:17:29
Post #3

добрый мизантроп
**************
Group: Металариец
Posts: 2,064
Releases: 1
From: Минск
On Forums: 10 years 3 months
Thanks: 992 time(s)
Madagascar


обмазанная лоу фаем жалкая гитарная тема, как расслушалось, shift+del
Go to the top of the page
  Insert nick Quick quote
+Quote Post

Reply to this topicStart new topic
1 User(s) are reading this topic (1 Guests and 0 Anonymous Users)
0 Members:

 



- Lo-Fi Version Support form
Copyrights and abuse reports form
Time is now: 6th March 2021 - 06:36:13