Welcome Guest ( Log In | Register )

> И неформату есть предел.

Рэп/хип-хоп/шансон/поп удаляются. Для них есть свои порталы.

> Msc & The Body - I Don't Ever Want To Be Alone [collaboration] (2020), Electronic | Experimental (D)
post Oct 19 2020, 14:52:23
Post #1

Khaos[]
******
Group: Металариец
Posts: 524
Releases: 149
On Forums: 13 years 4 months
Thanks: 5343 time(s)
Croatia


(IMG:https://metalarea.org/images/audiocovers/2020_Oct/acov_tid342716_thumb.jpg)

*Artist: Msc & The Body
*Album: I Don't Ever Want To Be Alone [collaboration]
*Year: 2020
*Genre: Electronic | Experimental
*Country: United States (IMG:https://metalarea.org/forum/style_images/flags/United%20States.png) | United States (IMG:https://metalarea.org/forum/style_images/flags/United%20States.png)
*Format: mp3@CBR320kbps
*Size: 54MB

Tracklist:
1. We Share Disbelief 03:42
2. Inner 02:33
3. A Mouth Hangs Open 02:08
4. Hell Is the Self 02:51
5. The Ringing Bell of Sacrifice 03:40
6. All See What Other Sees 02:44
7. What Have I Let the World Make of Me 02:36
8. PKK 03:02
******************************
Total playing time: 23:16



Extended info
MSC (members of Braveyoung)


Technical info
(IMG:https://metalarea.org/images/spectrogram/2020_Oct/46eda7403353e68d526d00e6cb7f81e3.png)
Input File: 00-02 MSC & THE BODY - Inner.mp3
Channels : 2
Sample Rate : 44100
Precision : 16-bit
Duration : 00:02:33.87 = 6785623 samples = 11540.2 CDDA sectors
File Size : 6.22M
Bit Rate : 323k
Sample Encoding: MPEG audio (layer I, II or III)
Comments :
Title=Inner
Artist=MSC & THE BODY
Album=I Dont Ever Want To Be Alone
Tracknumber=2/0
Year=2020
Discnumber=0/0



Register


Go to the top of the page
  Insert nick Quick quote
+Quote Post
 
Start new topic
Replies (1 - 2)
post Oct 21 2020, 14:29:22
Post #2

Zero Tolerance
*****
Group: Металариец
Posts: 436
Releases: 0
On Forums: 8 years 2 months
Thanks: 77 time(s)
Unknown


Накидавшийся сантехник пытается безрезультатно отремонтировать неисправный сливной бочек китаёзовского производства.


Thanks:
Go to the top of the page
  Insert nick Quick quote
+Quote Post
post Oct 22 2020, 21:44:59
Post #3

http://rateyourmusic.com/~Ghostb
**************
Group: Металариец
Posts: 2,457
Releases: 0
From: Харьков
On Forums: 11 years 2 months
Thanks: 1165 time(s)
Ukraine


ЦИТАТА(Vitald @ Oct 21 2020, 16:29:22) *
Накидавшийся сантехник пытается безрезультатно отремонтировать неисправный сливной бочек китаёзовского производства

Надо послушать.
Go to the top of the page
  Insert nick Quick quote
+Quote Post

Reply to this topicStart new topic
1 User(s) are reading this topic (1 Guests and 0 Anonymous Users)
0 Members:

 



- Lo-Fi Version Support form
Copyrights and abuse reports form
Time is now: 4th December 2020 - 11:36:19