Welcome Guest ( Log In | Register )

> Releases Upload / Добавление релизов

Добавить релиз тут / Click here to add release
Рекомендованные обменники / Recommended file shares

> Grausamkeit - Fck God - Staring Into Darkness [ep] (2020), Black Metal (D)
post Oct 21 2020, 20:30:03
Post #1

Правь статус, ####!616
**************
Group: Металариец
Posts: 5,422
Releases: 3952
From: 55°35’N 38°08’E
On Forums: 12 years 4 months
Thanks: 74164 time(s)
Unknown


(IMG:https://metalarea.org/images/audiocovers/2020_Oct/acov_tid342786_thumb.jpg)

*Artist: Grausamkeit
*Album: Fck God - Staring Into Darkness [ep]
*Year: 2020
*Genre: Black Metal
*Country: Germany (IMG:https://metalarea.org/forum/style_images/flags/Germany.png)
*Format: mp3@CBR320kbps
*Size: 38MB

Tracklist:
1.Intro (Frau Hippe macht das schon) 02:15
2.Conspiracy with Subversive Elements 02:38
3.I Am the Graves of the 80s (Darkthrone cover) 02:50
4.Sitting By the Fire (Total Damage of My Dreams & Hopes) 04:44
5.Nocturnal Pulver (Heroin Makes Happy cover) 03:16
******************************
Total playing time: 15:43





Technical info
(IMG:https://metalarea.org/images/spectrogram/2020_Oct/1c4060794fbe5a4f5ba536aa039899b6.png)
Input File: 02 Conspiracy with Subversive Elements.mp3
Channels : 2
Sample Rate : 44100
Precision : 16-bit
Duration : 00:02:38.54 = 6991746 samples = 11890.7 CDDA sectors
File Size : 6.56M
Bit Rate : 331k
Sample Encoding: MPEG audio (layer I, II or III)
Comments :
Title=Conspiracy with Subversive Elements
Artist=Grausamkeit
Album=FCK God - Staring into Darkness
Tracknumber=2
Year=2020
Genre=Black Metal



Register


Go to the top of the page
  Insert nick Quick quote
+Quote Post
 
Start new topic
Replies (1 - 4)
post Oct 22 2020, 11:47:35
Post #2

Zero Tolerance
*****
Group: Металариец
Posts: 434
Releases: 0
On Forums: 8 years 2 months
Thanks: 77 time(s)
Unknown


Свежая порция пУнк-чернухи с эмбиент-пластмассой от старого мультидр0чера. Прикольно всё это дело обстоит.


Go to the top of the page
  Insert nick Quick quote
+Quote Post
post Oct 22 2020, 12:03:34
Post #3

De Mysteriis Dom Sathanas
**************
Group: Металариец
Posts: 4,150
Releases: 63
From: Doom
On Forums: 12 years 4 months
Thanks: 3541 time(s)
Russian Federation


ЦИТАТА(Vitald @ Oct 22 2020, 13:47:35) *
Свежая порция пУнк-чернухи с эмбиент-пластмассой от старого мультидр0чера. Прикольно всё это дело обстоит.

Прикольно описал) Стер все это действо пару месяцев назад)


Thanks:
Go to the top of the page
  Insert nick Quick quote
+Quote Post
post Oct 22 2020, 14:08:25
Post #4
BAN
Banned till
Dec 22 2020, 18:54:37



Это вы зря...Мощнейшая тема задвинута. Зная страсть B.S.o.D. к экспериментальному пиз..-цу, что вы там называете " пунк-чернуха", этот кусок саркастического смеха и безумия обладает фирменным новаторством и атмосферной каталепсией-насмешкой над всеми этими десятками неучей линейно наdrачивающих от заката и до грозы. Это тотальная ремиссия современного бэкграунда, который давно потерял нюх, воткнув себе вилы в глазницы и заперся в чулан. Конечно, музыканты-виртуозы, музыканты-мыслители любят себя сношать подачей и богатым внутренним миром, только [мат->бан] все это надо , когда есть релизы Андреаса, показывающие персональный фак богу, а заодно и всем блэк метал бразерсхуд'ам


Go to the top of the page
  Insert nick Quick quote
+Quote Post
post Oct 24 2020, 22:11:17
Post #5

павлинов в суп!)
**************
Group: Металариец
Posts: 4,254
Releases: 0
On Forums: 4 years 10 months
Thanks: 2819 time(s)
Unknown


ЦИТАТА(Vitald @ 22nd October 2020 - 15:47:35) *
пУнк

отличный и атмосферный релиз, ничего вышеуказанного там не услышал.
Go to the top of the page
  Insert nick Quick quote
+Quote Post

Reply to this topicStart new topic
1 User(s) are reading this topic (1 Guests and 0 Anonymous Users)
0 Members:

 



- Lo-Fi Version Support form
Copyrights and abuse reports form
Time is now: 3rd December 2020 - 20:50:48