Welcome Guest ( Log In | Register )

> Releases Upload / Добавление релизов

Добавить релиз тут / Click here to add release
Рекомендованные обменники / Recommended file shares

> Undeath - Lesions Of A Different Kind (2020), Death Metal
post Oct 22 2020, 11:37:07
Post #1

Правь статус, ####!111
**************
Group: Металариец
Posts: 23,919
Releases: 16810
From: Г.Харьков
On Forums: 8 years 6 months
Thanks: 319781 time(s)
Unknown


(IMG:https://metalarea.org/images/audiocovers/2020_Oct/acov_tid342801_thumb.jpg)

*Artist: Undeath
*Album: Lesions Of A Different Kind
*Year: 2020
*Genre: Death Metal
*Country: United States (IMG:https://metalarea.org/forum/style_images/flags/United%20States.png)
*Format: mp3@CBR320kbps
*Size: 83MB

Tracklist:
1. Suitably Hacked to Gore 02:24
2. Shackles of Sanity 02:33
3. Lesions of a Different Kind 03:07
4. Entranced by the Pendulum 03:35
5. Acidic Twilight Visions 03:40
6. Lord of the Grave 03:58
7. Kicked in the Protruding Guts 04:54
8. Phantasmal Festering 04:04
9. Chained to a Reeking Rotted Body 02:36
10. Archfiend Coercion Methods 04:41
******************************
Total playing time: 35:32




Extended info
Matt Browning Drums
See also: ex-Antlers as Roots
Kyle Beam Guitars
Alex Joseph Vocals
Tommy Wall Bass (2020-present)
See also: Execution Hour, Hallucination Realized, Narrow Grave, Tomb Warden, Acquisition, Brainpan, Molten Way
Jared Welch Guitars (2020-present)



Technical info
(IMG:https://metalarea.org/images/spectrogram/2020_Oct/d610aa296c151fb41e32e23df0262e50.png)
Input File: 07. Kicked in the Protruding Guts.mp3
Channels : 2
Sample Rate : 44100
Precision : 16-bit
Duration : 00:00:00.29 = 12965 samples = 22.0493 CDDA sectors
File Size : 11.9M
Bit Rate : 324M
Sample Encoding: MPEG audio (layer I, II or III)
Comments :
Title=Kicked in the Protruding Guts
Artist=Undeath
Album=Lesions of a Different Kind
Tracknumber=7
Year=2020
Genre=Death Metal
Discnumber=1



Register


Go to the top of the page
  Insert nick Quick quote
+Quote Post
 
Start new topic
Replies (1 - 3)
post Oct 22 2020, 17:59:59
Post #2

Правь статус, ####!111
**************
Group: Металариец
Posts: 23,919
Releases: 16810
From: Г.Харьков
On Forums: 8 years 6 months
Thanks: 319781 time(s)
Unknown


FLAC (Tracks) 252 mb
Register


Go to the top of the page
  Insert nick Quick quote
+Quote Post
post Oct 23 2020, 15:10:30
Post #3

Crush! Kill! Destroy!
**************
Group: Металариец
Posts: 5,598
Releases: 15
From: Kaliningrad
On Forums: 13 years 1 week
Thanks: 5303 time(s)
Russian Federation


Огниво! Хотя демки круче были.
Go to the top of the page
  Insert nick Quick quote
+Quote Post
post Nov 21 2020, 20:29:40
Post #4

кручу наждак
**************
Group: Металариец
Posts: 4,638
Releases: 103
From: Самара
On Forums: 10 years 6 months
Thanks: 3717 time(s)
Russian Federation


Уютный, ламповый gore-альбом.
Go to the top of the page
  Insert nick Quick quote
+Quote Post

Reply to this topicStart new topic
2 User(s) are reading this topic (2 Guests and 0 Anonymous Users)
0 Members:

 



- Lo-Fi Version Support form
Copyrights and abuse reports form
Time is now: 25th November 2020 - 09:22:46