Welcome Guest ( Log In | Register )

> Skeleton Pit - Lust To Lynch (2020), Old School Thrash Metal
post Oct 22 2020, 12:12:53
Post #1

Правь статус, ####!111
**************
Group: Металариец
Posts: 25,773
Releases: 18452
From: Г.Харьков
On Forums: 8 years 11 months
Thanks: 364223 time(s)
Unknown


(IMG:https://metalarea.org/images/audiocovers/2020_Oct/acov_tid342807_thumb.jpg)

*Artist: Skeleton Pit
*Album: Lust To Lynch
*Year: 2020
*Genre: Old School Thrash Metal
*Country: Germany (IMG:https://metalarea.org/forum/style_images/flags/Germany.png)
*Format: mp3@CBR320kbps
*Size: 93MB

Tracklist:
1. Lust to Lynch 01:30
2. Violent Raid 03:56
3. Plague of Violence 04:23
4. Skull Splitting Attack 04:23
5. Thrashorcism 03:25
6. Like Vultures 03:44
7. Awaken the Claw 04:12
8. Last Blood 03:21
9. Challenge to Kill 03:44
10. The Evil Horde 06:47
******************************
Total playing time: 39:25




Extended info
Doyle Fascinator Bass (2014-present)
See also: ex-Pissdolls
Lizzard Chandler Drums (2014-present)
See also: ex-Pissdolls
Patrick Options Guitars, Vocals (2014-present)
See also: ex-Pissdolls


Technical info
(IMG:https://metalarea.org/images/spectrogram/2020_Oct/c1fd31ac41b5d9337c1610a2b2f7e84e.png)
Input File: 04 - Skull Splitting Attack.mp3
Channels : 2
Sample Rate : 44100
Precision : 16-bit
Duration : 00:04:22.55 = 11578235 samples = 19690.9 CDDA sectors
File Size : 10.7M
Bit Rate : 327k
Sample Encoding: MPEG audio (layer I, II or III)
Comments :
Title=Skull Splitting Attack
Artist=Skeleton Pit
Album=Lust to Lynch
Tracknumber=4
Year=2020



Register


Go to the top of the page
  Insert nick Quick quote
+Quote Post
 
Start new topic
Replies (1 - 6)
post Oct 23 2020, 19:24:10
Post #2

Четыре Литра
****
Group: Металариец
Posts: 374
Releases: 0
From: Kyiv
On Forums: 9 years 5 days
Thanks: 154 time(s)
Ukraine


Задорно, молодежно! (IMG:style_emoticons/default/m0821.gif)
Go to the top of the page
  Insert nick Quick quote
+Quote Post
post Oct 23 2020, 19:53:25
Post #3

Восемь Литров
********
Group: Металариец
Posts: 874
Releases: 0
From: South Of Heaven
On Forums: 13 years 8 months
Thanks: 412 time(s)
Ukraine


Очень хорошо, живенько нарезают ! (IMG:style_emoticons/default/metaler.gif)
Релизёру (IMG:style_emoticons/default/9.gif)


Thanks:
Go to the top of the page
  Insert nick Quick quote
+Quote Post
post Oct 24 2020, 01:10:13
Post #4

Dr.
**************
Group: Металариец
Posts: 5,331
Releases: 0
From: Primorye.ru
On Forums: 10 years 3 weeks
Thanks: 1107 time(s)
Russian Federation


This download is a delight for fans of this genre. Thrash metal without experiments.


Thanks:
Go to the top of the page
  Insert nick Quick quote
+Quote Post
post Oct 24 2020, 05:43:39
Post #5

Четыре Литра
****
Group: Металариец
Posts: 315
Releases: 0
From: Липецк
On Forums: 11 years 9 months
Thanks: 37 time(s)
Russian Federation


Сменить бестолкового визгливого вокалиста и будет самое то.
Go to the top of the page
  Insert nick Quick quote
+Quote Post
post Oct 24 2020, 18:37:50
Post #6

Мегаманьяк
***********
Group: Металариец
Posts: 1,947
Releases: 0
On Forums: 12 years 1 month
Thanks: 811 time(s)
Antarctica


Обидно, что такой отличный, раскачивающий и ухабистый олдскульный материал сыгран с жидкими гитарами. Вроде бы от такого материала должен был быть кайф, однако слушаешь его с застывшим постным лицом. С другим звуком было бы отлично, а так - на раз.
Go to the top of the page
  Insert nick Quick quote
+Quote Post
post Dec 16 2020, 05:36:20
Post #7

i listen to black metal
**************
Group: Металариец
Posts: 2,900
Releases: 138
From: Москва-Лианозово
On Forums: 14 years 3 months
Thanks: 2294 time(s)
Russian Federation


когда Пресняков ударился в трэш (IMG:style_emoticons/default/5.gif) (IMG:style_emoticons/default/5.gif) (IMG:style_emoticons/default/5.gif)
Go to the top of the page
  Insert nick Quick quote
+Quote Post

Reply to this topicStart new topic
2 User(s) are reading this topic (2 Guests and 0 Anonymous Users)
0 Members:

 



- Lo-Fi Version Support form
Copyrights and abuse reports form
Time is now: 18th April 2021 - 01:28:02