Welcome Guest ( Log In | Register )

> И неформату есть предел.

Рэп/хип-хоп/шансон/поп удаляются. Для них есть свои порталы.

> Rïcïnn - Nereïd (2020), Avant-Garde/Neoclassical
post Oct 22 2020, 22:52:09
Post #1

Пять Литров
*****
Group: Металариец
Posts: 434
Releases: 91
From: Moscow
On Forums: 14 years 8 months
Thanks: 2539 time(s)
Russian Federation


(IMG:https://metalarea.org/images/audiocovers/2020_Oct/acov_tid342835_thumb.jpg)

*Artist: Rïcïnn
*Album: Nereïd
*Year: 2020
*Genre: Avant-Garde/Neoclassical
*Country: France (IMG:https://metalarea.org/forum/style_images/flags/France.png)
*Format: mp3@CBR320kbps
*Size: 97MB

Tracklist:
01. Zéro 01:22
02. Doris 04:20
03. Nereïd 04:19
04. Missäe 01:34
05. Artäe 05:12
06. Ëön 02:47
07. Psamatäe 05:20
08. J-C 02:31
09. Thaliäe 02:52
10. Ele 04:27
11. Söre 03:15
12. Erani 02:57
******************************
Total playing time: 40:56



Extended info
Members :
Laure Le Prunenec (vocals,composition )
Laurent Lunoir (Guitar)
Raphael Verguin ( Cello)
Sylvain Bouvier (Drums)

Если что, на BandCamp можно скачать в любом качестве.



Technical info
(IMG:https://metalarea.org/images/spectrogram/2020_Oct/3fa5b3efa66bf29b747d661969a67c48.png)
Input File: 02 - Doris.mp3
Channels : 2
Sample Rate : 44100
Precision : 16-bit
Duration : 00:04:20.09 = 11469925 samples = 19506.7 CDDA sectors
File Size : 10.4M
Bit Rate : 321k
Sample Encoding: MPEG audio (layer I, II or III)
Comments :
Title=Doris
Artist=Rïcïnn
Album=Nereïd
Tracknumber=2
Year=2020
Genre=Avant-Garde / Neoclassical



Register


Go to the top of the page
  Insert nick Quick quote
+Quote Post
 
Start new topic
Replies (1 - 1)
post Oct 25 2020, 08:49:43
Post #2

Zero Tolerance
*****
Group: Металариец
Posts: 436
Releases: 0
On Forums: 8 years 2 months
Thanks: 77 time(s)
Unknown


Тётки поют ни о чём под никчемный аккомпанемент.
Go to the top of the page
  Insert nick Quick quote
+Quote Post

Reply to this topicStart new topic
1 User(s) are reading this topic (1 Guests and 0 Anonymous Users)
0 Members:

 



- Lo-Fi Version Support form
Copyrights and abuse reports form
Time is now: 4th December 2020 - 11:45:08