Welcome Guest ( Log In | Register )

> И неформату есть предел.

Рэп/хип-хоп/шансон/поп удаляются. Для них есть свои порталы.

> Roger Waters - The Pros And Cons Of Hitchhiking (1984), Progressive Rock
post Oct 24 2020, 05:51:15
Post #1

Враг Газпрома
**************
Group: Металариец
Posts: 6,371
Releases: 0
On Forums: 11 years 5 months
Thanks: 2540 time(s)
Russian Federation


(IMG:https://metalarea.org/images/audiocovers/2020_Oct/acov_tid342867_thumb.png)

*Artist: Roger Waters
*Album: The Pros And Cons Of Hitchhiking
*Year: 1984
*Genre: Progressive Rock
*Country: United Kingdom (IMG:https://metalarea.org/forum/style_images/flags/United%20Kingdom.png)
*Format: mp3@CBR320kbps
*Size: 93MB

Tracklist:
1. 4:30 AM (Apparently They Were Travelling Abroad) 3:12
2. 4:33 AM (Running Shoes) 4:08
3. 4:37 AM (Arabs with Knives and West German Skies) 2:17
4. 4:39 AM (For the First Time Today, Part 2) 2:02
5. 4:41 AM (Sexual Revolution) 4:49
6. 4:47 AM (The Remains of Our Love) 3:09
7. 4:50 AM (Go Fishing) 6:59
8. 4:56 AM (For the First Time Today, Part 1) 1:38
9. 4:58 AM (Dunroamin, Duncarin, Dunlivin) 3:03
10. 5:01 AM (The Pros and Cons of Hitch Hiking) 4:36
11. 5:06 AM (Every Stranger's Eyes) 4:48
12. 5:11 AM (The Moment of Clarity) 1:28
******************************
Total playing time: 42:09

Technical info
(IMG:https://metalarea.org/images/spectrogram/2020_Oct/3d509ae815906abb9780f780d56ea109.png)
Input File: 01 - 4-30 AM (Apparently They Were Travelling Abroad).mp3
Channels : 2
Sample Rate : 44100
Precision : 16-bit
Duration : 00:03:12.20 = 8475844 samples = 14414.7 CDDA sectors
File Size : 7.74M
Bit Rate : 322k
Sample Encoding: MPEG audio (layer I, II or III)
Comments :
Title=4:30 AM (Apparently They Were Travelling Abroad)
Artist=Roger Waters
Album=The Pros And Cons Of Hitch Hiking
Tracknumber=01
Year=1984
Genre=Progressive Rock



Register


Go to the top of the page
  Insert nick Quick quote
+Quote Post
 
Start new topic
Replies (1 - 1)
post Oct 29 2020, 22:17:44
Post #2

http://rateyourmusic.com/~Ghostb
**************
Group: Металариец
Posts: 2,439
Releases: 0
From: Харьков
On Forums: 11 years 1 month
Thanks: 1153 time(s)
Ukraine


Крепкая пластинка вполне, всегда нравилась.


Thanks:
(1) vam1972,
Go to the top of the page
  Insert nick Quick quote
+Quote Post

Reply to this topicStart new topic
1 User(s) are reading this topic (1 Guests and 0 Anonymous Users)
0 Members:

 



- Lo-Fi Version Support form
Copyrights and abuse reports form
Time is now: 25th November 2020 - 06:56:37