Welcome Guest ( Log In | Register )

> Releases Upload / Добавление релизов

Добавить релиз тут / Click here to add release
Рекомендованные обменники / Recommended file shares

 
Reply to this topicStart new topic
> Kvll - Death​/​/​Sacrifice (2020), Sludge/Doom Metal
post Oct 24 2020, 08:51:49
Post #1

funeral doom fan
Group Icon
Group: S-moderation team
Posts: 4,860
Releases: 2524
From: Ростов-на-Дону
On Forums: 14 years 11 months
Thanks: 48280 time(s)
Russian Federation


(IMG:http://metalarea.org/images/audiocovers/2020_Oct/acov_tid342868_thumb.jpg)

*Artist: Kvll
*Album: Death​/​/Sacrifice
*Year: 2020
*Genre: Sludge/Doom Metal
*Country: Australia (IMG:http://metalarea.org/forum/style_images/flags/Australia.png)
*Format: mp3@CBR320kbps
*Size: 77MB

Tracklist:
1. The Death of All That Is Crushing 05:38
2. Slow Death 07:06
3. Sacrifice 04:41
4. Blood to the Altar 06:45
5. Beneath the Throne 09:21
******************************
Total playing time: 33:31



Technical info
(IMG:http://metalarea.org/images/spectrogram/2020_Oct/840913a87a5b5777d4231d3a08bc3a72.png)
Input File: 01 - The Death Of All That Is Crushing.mp3
Channels : 2
Sample Rate : 44100
Precision : 16-bit
Duration : 00:05:38.62 = 14933186 samples = 25396.6 CDDA sectors
File Size : 13.5M
Bit Rate : 320k
Sample Encoding: MPEG audio (layer I, II or III)
Comments :
Title=The Death Of All That Is Crushing
Artist=Kvll
Album=Death​/​/​sacrifice
Tracknumber=01
Year=2020



Register


Go to the top of the page
  Insert nick Quick quote
+Quote Post

Reply to this topicStart new topic
1 User(s) are reading this topic (1 Guests and 0 Anonymous Users)
0 Members:

 



- Lo-Fi Version Support form
Copyrights and abuse reports form
Time is now: 3rd December 2020 - 20:51:41