Welcome Guest ( Log In | Register )

> И неформату есть предел.

Рэп/хип-хоп/шансон/поп удаляются. Для них есть свои порталы.

 
Reply to this topicStart new topic
> Maciej Meller - Zenith (2020), Progressive Rock
post Oct 24 2020, 09:28:16
Post #1

Ёлд ХеллоВяйне
Group Icon
Group: V.I.P
Posts: 30,699
Releases: 139
From: Питер
On Forums: 14 years 1 month
Thanks: 18566 time(s)
Russian Federation


(IMG:http://metalarea.org/images/audiocovers/2020_Oct/acov_tid342871_thumb.jpg)

*Artist: Maciej Meller
*Album: Zenith
*Year: 2020
*Genre: Progressive Rock
*Country: Poland (IMG:http://metalarea.org/forum/style_images/flags/Poland.png)
*Format: mp3@CBR320kbps
*Size: 106MB

Tracklist:
01. Aside 08:44
02. Knife 04:39
03. Plan B 04:11
04. Halfway 05:10
05. Frozen 5:40
06. Fox 6:40
07. Trip 08:02
08. Magic 01:52
******************************
Total playing time: 44:58



Extended info
Сольник гитариста Riverside. Ругать не за что, но до уровня группы далековато.

Maciej Meller - Guitars, Mandolin
Krzysztof Borek - Vocals
Robert Szydlo - Bass
Lukasz Damrych - Keyboards
Lukasz Sobolak - Drums


Technical info
(IMG:http://metalarea.org/images/spectrogram/2020_Oct/99f69f8d1b16bee2f389f980aa22a7b6.png)
Input File: 03. Plan B.mp3
Channels : 2
Sample Rate : 44100
Precision : 16-bit
Duration : 00:04:11.32 = 11082992 samples = 18848.6 CDDA sectors
File Size : 10.1M
Bit Rate : 320k
Sample Encoding: MPEG audio (layer I, II or III)
Comments :
Title=Plan B
Artist=Maciej Meller
Album=Zenith
Tracknumber=3/8
Year=2020
Genre=Progressive Rock



Register


Thanks:
Go to the top of the page
  Insert nick Quick quote
+Quote Post

Reply to this topicStart new topic
1 User(s) are reading this topic (1 Guests and 0 Anonymous Users)
0 Members:

 



- Lo-Fi Version Support form
Copyrights and abuse reports form
Time is now: 25th November 2020 - 06:42:44