Welcome Guest ( Log In | Register )

> И неформату есть предел.

Рэп/хип-хоп/шансон/поп удаляются. Для них есть свои порталы.

 
Reply to this topicStart new topic
> Mundus Senescit - A Face Without A Name Ii [ep] (2020), Dark Ambient/Noise/Industrial
post Oct 25 2020, 00:15:09
Post #1

Два Литра
**
Group: Завсегдатай
Posts: 125
Releases: 73
On Forums: 9 years 8 months
Thanks: 3128 time(s)
Unknown


(IMG:https://metalarea.org/images/audiocovers/2020_Oct/acov_tid342899_thumb.jpg)

*Artist: Mundus Senescit
*Album: A Face Without A Name Ii [ep]
*Year: 2020
*Genre: Dark Ambient/Noise/Industrial
*Country: Greece (IMG:https://metalarea.org/forum/style_images/flags/Greece.png)
*Format: mp3@CBR320kbps
*Size: 24MB

Tracklist:
1.Untitled III 03:48
2.Untitled IV 04:21
******************************
Total playing time: 8:09



Technical info
(IMG:https://metalarea.org/images/spectrogram/2020_Oct/cbf7d3a506a3b18195e1ffa5139e63b0.png)
Input File: Mundus Senescit - Untitled III.mp3
Channels : 2
Sample Rate : 44100
Precision : 16-bit
Duration : 00:03:48.97 = 10097445 samples = 17172.5 CDDA sectors
File Size : 9.16M
Bit Rate : 320k
Sample Encoding: MPEG audio (layer I, II or III)
Comments :
Title=Untitled III
Artist=Mundus Senescit
Album=Untitled
Tracknumber=3
Year=2020



Register


Thanks:
Go to the top of the page
  Insert nick Quick quote
+Quote Post

Reply to this topicStart new topic
1 User(s) are reading this topic (1 Guests and 0 Anonymous Users)
0 Members:

 



- Lo-Fi Version Support form
Copyrights and abuse reports form
Time is now: 30th November 2020 - 02:48:43