Welcome Guest ( Log In | Register )

> Releases Upload / Добавление релизов

Добавить релиз тут / Click here to add release
Рекомендованные обменники / Recommended file shares

> Satanize - Demolition Ritual (2020), Black Metal (D)
post Oct 25 2020, 01:27:51
Post #1

Правь статус, ####!111
**************
Group: Металариец
Posts: 4,759
Releases: 1449
From: Brazil
On Forums: 8 years 9 months
Thanks: 52808 time(s)
Brazil


(IMG:https://metalarea.org/images/audiocovers/2020_Oct/acov_tid342907_thumb.jpg)

*Artist: Satanize
*Album: Demolition Ritual
*Year: 2020
*Genre: Black Metal
*Country: Portugal (IMG:https://metalarea.org/forum/style_images/flags/Portugal.png)
*Format: mp3@CBR320kbps
*Size: 68MB

Tracklist:
1. Apocalyptical Servitude 06:09
2. Goatlord of Malicious Entities 02:36
3. Desecration Storm 03:49
4. Church Decimator 03:43
5. Demolition Ritual 02:28
6. Heretic Inquisition 02:37
7. Comendadores da Legião Barbárica do Sul 07:22
******************************
Total playing time: 28:44

(IMG:https://metalarea.org/images/youtube.png)

Extended info
Altare Productions


Technical info
(IMG:https://metalarea.org/images/spectrogram/2020_Oct/283ea339c5184a13ee5ba76912a89f98.png)
Input File: Satanize - Demolition Ritual (320) - 03. Desecration Storm.mp3
Channels : 2
Sample Rate : 44100
Precision : 16-bit
Duration : 00:03:49.89 = 10138281 samples = 17242 CDDA sectors
File Size : 9.61M
Bit Rate : 334k
Sample Encoding: MPEG audio (layer I, II or III)
Comments :
Title=Desecration Storm
Artist=Satanize
Album=Demolition Ritual
Tracknumber=03
Year=2019
Genre=Metal



Register


Go to the top of the page
  Insert nick Quick quote
+Quote Post
 
Start new topic
Replies (1 - 2)
post Oct 27 2020, 08:40:43
Post #2

While Waiting the Worms
**********
Group: Металариец
Posts: 1,168
Releases: 0
On Forums: 6 years 11 months
Thanks: 1699 time(s)
Unknown




Грубая, насильственная козлятина в духе классических работ Beherit, Profanatica, etc.
Нечестивое надругательство надо всем и вся.
Не моя форма.


Thanks:
Go to the top of the page
  Insert nick Quick quote
+Quote Post
post Nov 21 2020, 20:24:55
Post #3

melofags sniper
**************
Group: Металариец
Posts: 5,820
Releases: 0
On Forums: 12 years 8 months
Thanks: 5810 time(s)
Unknown


Interesting release.
Go to the top of the page
  Insert nick Quick quote
+Quote Post

Reply to this topicStart new topic
2 User(s) are reading this topic (2 Guests and 0 Anonymous Users)
0 Members:

 



- Lo-Fi Version Support form
Copyrights and abuse reports form
Time is now: 25th November 2020 - 08:33:13