Welcome Guest ( Log In | Register )

> Satanize - Demolition Ritual (2020), Black Metal (D)
post Oct 25 2020, 01:27:51
Post #1

Правь статус, ####!111
**************
Group: Металариец
Posts: 4,790
Releases: 1471
From: Brazil
On Forums: 9 years 2 months
Thanks: 54679 time(s)
Brazil


(IMG:https://metalarea.org/images/audiocovers/2020_Oct/acov_tid342907_thumb.jpg)

*Artist: Satanize
*Album: Demolition Ritual
*Year: 2020
*Genre: Black Metal
*Country: Portugal (IMG:https://metalarea.org/forum/style_images/flags/Portugal.png)
*Format: mp3@CBR320kbps
*Size: 68MB

Tracklist:
1. Apocalyptical Servitude 06:09
2. Goatlord of Malicious Entities 02:36
3. Desecration Storm 03:49
4. Church Decimator 03:43
5. Demolition Ritual 02:28
6. Heretic Inquisition 02:37
7. Comendadores da Legião Barbárica do Sul 07:22
******************************
Total playing time: 28:44

(IMG:https://metalarea.org/images/youtube.png)

Extended info
Altare Productions


Technical info
(IMG:https://metalarea.org/images/spectrogram/2020_Oct/283ea339c5184a13ee5ba76912a89f98.png)
Input File: Satanize - Demolition Ritual (320) - 03. Desecration Storm.mp3
Channels : 2
Sample Rate : 44100
Precision : 16-bit
Duration : 00:03:49.89 = 10138281 samples = 17242 CDDA sectors
File Size : 9.61M
Bit Rate : 334k
Sample Encoding: MPEG audio (layer I, II or III)
Comments :
Title=Desecration Storm
Artist=Satanize
Album=Demolition Ritual
Tracknumber=03
Year=2019
Genre=Metal



Register


Go to the top of the page
  Insert nick Quick quote
+Quote Post
 
Start new topic
Replies (1 - 8)
post Oct 27 2020, 08:40:43
Post #2

While Waiting the Worms
**********
Group: Металариец
Posts: 1,273
Releases: 0
On Forums: 7 years 3 months
Thanks: 1882 time(s)
Unknown




Грубая, насильственная козлятина в духе классических работ Beherit, Profanatica, etc.
Нечестивое надругательство надо всем и вся.
Не моя форма.


Thanks:
Go to the top of the page
  Insert nick Quick quote
+Quote Post
post Nov 21 2020, 20:24:55
Post #3

melofags sniper
**************
Group: Металариец
Posts: 6,116
Releases: 0
On Forums: 13 years 1 month
Thanks: 6537 time(s)
Unknown


Interesting release.


Thanks:
(1) biroutios,
Go to the top of the page
  Insert nick Quick quote
+Quote Post
post Dec 7 2020, 10:27:57
Post #4

Самый Тихий Час
**************
Group: Металариец
Posts: 6,375
Releases: 6
On Forums: 11 years 5 months
Thanks: 2971 time(s)
Unknown


Вроде и неплохо. Но вроде и ни к чему.
Go to the top of the page
  Insert nick Quick quote
+Quote Post
post Dec 7 2020, 10:31:43
Post #5

melofags sniper
**************
Group: Металариец
Posts: 6,116
Releases: 0
On Forums: 13 years 1 month
Thanks: 6537 time(s)
Unknown


QUOTE(Chasm @ Dec 7 2020, 10:27:57) *
Вроде и неплохо. Но вроде и ни к чему.

Like every Old school Death Metal and Swedish Death Metal releases (same for black metal and old school thrash).


Thanks:
(1) biroutios,
Go to the top of the page
  Insert nick Quick quote
+Quote Post
post Dec 7 2020, 10:41:59
Post #6

Два Литра
**
Group: Завсегдатай
Posts: 122
Releases: 0
On Forums: 5 months 5 days
Thanks: 70 time(s)
Somalia


ЦИТАТА(babanguida @ 7th December 2020 - 13:31:43) *
Like every Old school Death Metal and Swedish Death Metal releases (same for black metal and old school thrash).


Like 95% of metal to put it simply.
Go to the top of the page
  Insert nick Quick quote
+Quote Post
post Dec 7 2020, 10:55:23
Post #7

Total Death
**********
Group: Металариец
Posts: 1,286
Releases: 75
On Forums: 11 years 10 months
Thanks: 1967 time(s)
Unknown


ЦИТАТА(sewage @ Dec 7 2020, 13:41:59) *
Like 95% of metal to put it simply.

You are being generous (IMG:style_emoticons/default/1488.gif)
Go to the top of the page
  Insert nick Quick quote
+Quote Post
post Dec 7 2020, 11:26:20
Post #8

Самый Тихий Час
**************
Group: Металариец
Posts: 6,375
Releases: 6
On Forums: 11 years 5 months
Thanks: 2971 time(s)
Unknown


ЦИТАТА(babanguida @ 7th December 2020 - 12:31:43) *
Like every Old school Death Metal and Swedish Death Metal releases (same for black metal and old school thrash).

ни..уя.
Go to the top of the page
  Insert nick Quick quote
+Quote Post
post Dec 16 2020, 14:40:44
Post #9

Четыре Литра
****
Group: Металариец
Posts: 305
Releases: 0
From: Hellisipolis
On Forums: 12 years 2 months
Thanks: 34 time(s)
Antarctica


Regains bandcamp says "2019 album finally available on CD & digital format".

originally released 12"lp by Altare Productions (#144 copies) in February 17th, 2019


Thanks:
Go to the top of the page
  Insert nick Quick quote
+Quote Post

Reply to this topicStart new topic
2 User(s) are reading this topic (2 Guests and 0 Anonymous Users)
0 Members:

 



- Lo-Fi Version Support form
Copyrights and abuse reports form
Time is now: 14th April 2021 - 15:37:51