Welcome Guest ( Log In | Register )

> И неформату есть предел.

Рэп/хип-хоп/шансон/поп удаляются. Для них есть свои порталы.

 
Reply to this topicStart new topic
> Paulus - Illuminate (2020), Neofolk
post Oct 26 2020, 16:08:18
Post #1

Правь статус, ####!111
**************
Group: Металариец
Posts: 4,789
Releases: 1470
From: Brazil
On Forums: 8 years 11 months
Thanks: 54047 time(s)
Brazil


(IMG:http://metalarea.org/images/audiocovers/2020_Oct/acov_tid342984_thumb.jpg)

*Artist: Paulus
*Album: Illuminate
*Year: 2020
*Genre: Neofolk
*Country: Canada (IMG:http://metalarea.org/forum/style_images/flags/Canada.png)
*Format: mp3@CBR320kbps
*Size: 78MB

Tracklist:
1. The Time To Act In Now
2. Life Of Sin
3. Bloodline
4. Temptation
5. Forget
6. Embrace
7. Yolk Of Self
8. Illuminate
9. Fire Embrace Me
10. Trinity
11. Morbid Wolf
12. Ye Art Cast Aside Doubt
13. Do It All Again
******************************
Total playing time: 33:37



Extended info
Les Fleurs du Mal Productions

https://www.discogs.com/pt_BR/Paulus-Illuminate/release/15131989


Technical info
(IMG:http://metalarea.org/images/spectrogram/2020_Oct/349d5efc1f8f71cfa2f7a04478c5cc76.png)
Input File: 13 Do It All Again.mp3
Channels : 2
Sample Rate : 44100
Precision : 16-bit
Duration : 00:01:29.58 = 3950390 samples = 6718.35 CDDA sectors
File Size : 3.65M
Bit Rate : 326k
Sample Encoding: MPEG audio (layer I, II or III)
Comments :
Title=Do It All Again
Artist=Paulus
Album=Illuminate
Tracknumber=13/13
Year=2020
Discnumber=1/1



Register


Go to the top of the page
  Insert nick Quick quote
+Quote Post

Reply to this topicStart new topic
1 User(s) are reading this topic (1 Guests and 0 Anonymous Users)
0 Members:

 



- Lo-Fi Version Support form
Copyrights and abuse reports form
Time is now: 26th January 2021 - 15:41:44