Welcome Guest ( Log In | Register )

> И неформату есть предел.

Рэп/хип-хоп/шансон/поп удаляются. Для них есть свои порталы.

> Timecop1983 - Night Drive (Instrumental Edition) (2018), Synthwave
post Oct 27 2020, 16:59:13
Post #1

Правь статус, ####!111
**************
Group: Металариец
Posts: 47,662
Releases: 756
On Forums: 11 years 5 months
Thanks: 41042 time(s)
Russian Federation


(IMG:http://metalarea.org/images/audiocovers/2020_Oct/acov_tid343022_thumb.jpg)

*Artist: Timecop1983
*Album: Night Drive (Instrumental Edition)
*Year: 2018
*Genre: Synthwave
*Country: Netherlands (IMG:http://metalarea.org/forum/style_images/flags/Netherlands.png)
*Format: mp3@CBR320kbps
*Size: 126MB

Tracklist:
1. Static (feat. The Midnight)
2. On The Run
3. Back To You
4. Cruise
5. Neon Lights (feat. Josh Dally)
6. Afterglow
7. Too Late (feat. LeBrock)
8. Skylines
9. Tokyo (feat. Kinnie Lane)
10. Nightfall
11. It Was Only A Dream
******************************
Total playing time: 55:04



Technical info
(IMG:http://metalarea.org/images/spectrogram/2020_Oct/7ce3ed3ab58c9ec162d37a9a400afba4.png)
Input File: 01. Static (Instrumental) (feat. The Midnight).mp3
Channels : 2
Sample Rate : 44100
Precision : 16-bit
Duration : 00:04:53.76 = 12954596 samples = 22031.6 CDDA sectors
File Size : 11.8M
Bit Rate : 321k
Sample Encoding: MPEG audio (layer I, II or III)
Comments :
Title=Static (Instrumental) (feat. The Midnight)
Artist=Timecop1983
Album=Night Drive (Instrumental Edition)
Tracknumber=01/11
Year=2018
Genre=Synthwave



Register


Go to the top of the page
  Insert nick Quick quote
+Quote Post
 
Start new topic
Replies (1 - 2)
post Oct 27 2020, 19:09:05
Post #2

Правь статус, ####!111
**************
Group: Металариец
Posts: 47,662
Releases: 756
On Forums: 11 years 5 months
Thanks: 41042 time(s)
Russian Federation


Неспешный лаунжевый инструментал. Несмотря на то, что проектов подобного толка сейчас достаточно много, этот релиз смог впечатлить.

Go to the top of the page
  Insert nick Quick quote
+Quote Post
post Oct 29 2020, 19:00:16
Post #3

на аватаре не я
**************
Group: Металариец
Posts: 5,130
Releases: 8
From: "Самопровозглашенная ДНР" (с)
On Forums: 11 years 4 months
Thanks: 2643 time(s)
Russian Federation


Приятный медитативный синтвэйв. Идеальная фоновая музыка.


Go to the top of the page
  Insert nick Quick quote
+Quote Post

Reply to this topicStart new topic
1 User(s) are reading this topic (1 Guests and 0 Anonymous Users)
0 Members:

 



- Lo-Fi Version Support form
Copyrights and abuse reports form
Time is now: 25th November 2020 - 05:49:57