Welcome Guest ( Log In | Register )

> Shagor - Sotteklugt (2020), Atmospheric Black Metal
post Oct 31 2020, 00:53:43
Post #1

Malum dominus omnium
**
Group: Завсегдатай
Posts: 166
Releases: 96
On Forums: 10 months 3 weeks
Thanks: 1951 time(s)
Vatican City


(IMG:http://metalarea.org/images/audiocovers/2020_Oct/acov_tid343196_thumb.jpg)

*Artist: Shagor
*Album: Sotteklugt
*Year: 2020
*Genre: Atmospheric Black Metal
*Country: Netherlands (IMG:http://metalarea.org/forum/style_images/flags/Netherlands.png)
*Format: mp3@CBR320kbps
*Size: 86MB

Tracklist:
1. Schemerzever 07:46
2. Nachtdwaler 06:37
3. Respijt 08:14
4. Verdoolde Hemelbol 03:00
5. Dodendans 11:33
******************************
Total playing time: 37:10

(IMG:http://metalarea.org/images/youtube.png)
Metal Archives


Technical info
(IMG:http://metalarea.org/images/spectrogram/2020_Oct/12cff22058a923cd9e3d36ba730111e1.png)
Input File: 05 Shagor - Dodendans.mp3
Channels : 2
Sample Rate : 44100
Precision : 16-bit
Duration : 00:11:33.67 = 30590715 samples = 52025 CDDA sectors
File Size : 27.7M
Bit Rate : 320k
Sample Encoding: MPEG audio (layer I, II or III)



Register


Go to the top of the page
  Insert nick Quick quote
+Quote Post
 
Start new topic
Replies (1 - 9)
post Oct 31 2020, 16:02:07
Post #2

0%Tolerance
******
Group: Металариец
Posts: 606
Releases: 0
On Forums: 8 years 4 months
Thanks: 107 time(s)
Unknown


Атмоблэк с эпическими слюнями и т.д. С трудом дослушал.


Thanks:
Go to the top of the page
  Insert nick Quick quote
+Quote Post
post Oct 31 2020, 17:34:01
Post #3

Литр
*
Group: Подсевший
Posts: 59
Releases: 0
From: indark
On Forums: 5 years 1 week
Thanks: 16 time(s)
Unknown


ЦИТАТА(Vitald @ Oct 31 2020, 16:02:07) *
Атмоблэк с эпическими слюнями и т.д.

Слюни в смысле слюни, или страданья-завыванья? Костяшки на облоге интригуют, а качать абы чего лень.
Go to the top of the page
  Insert nick Quick quote
+Quote Post
post Oct 31 2020, 18:44:03
Post #4

Group: Подсевший
Posts: 33
Releases: 0
On Forums: 1 year 8 months
Thanks: 1 time(s)
Israel


Крутейший альбом
Go to the top of the page
  Insert nick Quick quote
+Quote Post
post Nov 1 2020, 11:21:09
Post #5

0%Tolerance
******
Group: Металариец
Posts: 606
Releases: 0
On Forums: 8 years 4 months
Thanks: 107 time(s)
Unknown


ЦИТАТА(Hefir @ Oct 31 2020, 18:34:01) *
Слюни в смысле слюни, или страданья-завыванья? Костяшки на облоге интригуют, а качать абы чего лень.

Не слюнислюни прям, эпик скорее.
Облога - лучшее, что есть здесь.
Go to the top of the page
  Insert nick Quick quote
+Quote Post
post Nov 1 2020, 17:14:40
Post #6

Правь статус, ####!111
**************
Group: Металариец
Posts: 3,419
Releases: 11
From: Dnipro
On Forums: 12 years 6 months
Thanks: 1276 time(s)
Ukraine


ЦИТАТА(Vitald @ Oct 31 2020, 17:02:07) *
Атмоблэк с эпическими слюнями и т.д. С трудом дослушал.

О, нет, нет, слюни не надо, это распространение инфекции, сейчас ведь коронавирус. (IMG:style_emoticons/default/25.gif)


Thanks:
Go to the top of the page
  Insert nick Quick quote
+Quote Post
post Nov 5 2020, 13:00:34
Post #7

Литр
*
Group: Подсевший
Posts: 78
Releases: 0
On Forums: 13 years 1 month
Thanks: 2 time(s)
Afghanistan


кстати, нормальные сопли, не ковидные
Go to the top of the page
  Insert nick Quick quote
+Quote Post
post Dec 26 2020, 19:30:39
Post #8

i listen to black metal
**************
Group: Металариец
Posts: 2,764
Releases: 133
From: Москва-Лианозово
On Forums: 14 years 3 weeks
Thanks: 2205 time(s)
Russian Federation


вокалист - собака с своим прозвищем всех обломал))))
все нормальные J.
а он видете ли P.
(IMG:style_emoticons/default/15.gif) (IMG:style_emoticons/default/15.gif) (IMG:style_emoticons/default/15.gif)
Go to the top of the page
  Insert nick Quick quote
+Quote Post
post Jan 12 2021, 08:50:04
Post #9

добрый мизантроп
***********
Group: Металариец
Posts: 1,947
Releases: 0
From: Минск
On Forums: 10 years 2 months
Thanks: 950 time(s)
Madagascar


послушал, скучно, удалил
Go to the top of the page
  Insert nick Quick quote
+Quote Post
post Jan 13 2021, 17:16:22
Post #10

Два Литра
**
Group: Завсегдатай
Posts: 109
Releases: 0
On Forums: 11 years 5 months
Thanks: 105 time(s)
Moldova


Прогнал один раз, на самом деле скучно. Вроде бы качественно записано, но все жутко монотонно
Go to the top of the page
  Insert nick Quick quote
+Quote Post

Reply to this topicStart new topic
1 User(s) are reading this topic (1 Guests and 0 Anonymous Users)
0 Members:

 



- Lo-Fi Version Support form
Copyrights and abuse reports form
Time is now: 16th January 2021 - 02:49:15