Welcome Guest ( Log In | Register )

> Releases Upload / Добавление релизов

Добавить релиз тут / Click here to add release
Рекомендованные обменники / Recommended file shares

> Nerguth - Inlusio Aeternum [demo] (2020), Atmospheric Black Metal (D)
post Oct 31 2020, 13:33:57
Post #1

Два Литра
**
Group: Завсегдатай
Posts: 182
Releases: 13
On Forums: 10 years 2 weeks
Thanks: 308 time(s)
Unknown


(IMG:https://metalarea.org/images/audiocovers/2020_Oct/acov_tid343217_thumb.png)

*Artist: Nerguth
*Album: Inlusio Aeternum [demo]
*Year: 2020
*Genre: Atmospheric Black Metal
*Country: Ukraine (IMG:https://metalarea.org/forum/style_images/flags/Ukraine.png)
*Format: mp3@CBR320kbps
*Size: 46MB

Tracklist:
1. Illusions
2. Dissolve
3. Loneliness
******************************
Total playing time: 21:54

Technical info
(IMG:https://metalarea.org/images/spectrogram/2020_Oct/266b37792b1b5f34ac6dfb0d9a926b66.png)
Input File: 1. Illusions.mp3
Channels : 2
Sample Rate : 44100
Precision : 16-bit
Duration : 00:07:17.84 = 19308788 samples = 32838.1 CDDA sectors
File Size : 17.5M
Bit Rate : 320k
Sample Encoding: MPEG audio (layer I, II or III)
Comments :
Title=Illusions
Artist=Nerguth
Album=Inlusio Aeternum
Tracknumber=1/3
Year=2020
Genre=Black Metal



Register


Go to the top of the page
  Insert nick Quick quote
+Quote Post
 
Start new topic
Replies (1 - 1)
post Nov 1 2020, 09:41:38
Post #2

Два Литра
**
Group: Завсегдатай
Posts: 166
Releases: 0
From: минск сити
On Forums: 11 years 5 months
Thanks: 48 time(s)
Belarus




Thanks:
Go to the top of the page
  Insert nick Quick quote
+Quote Post

Reply to this topicStart new topic
1 User(s) are reading this topic (1 Guests and 0 Anonymous Users)
0 Members:

 



- Lo-Fi Version Support form
Copyrights and abuse reports form
Time is now: 29th November 2020 - 17:52:53