Welcome Guest ( Log In | Register )

> Правила / Rules

Тут только для чтения лежат низкобитрейтные (<192kbps) релизы, для которых есть аналоги в высокобитрейтных форумах.

Here goes (and stand in read only mode) low bitrate releases (<192kbps) which were already replaced by high bitrate releases in corresponding forums.

> Psychonaut 4 - Beautyfall Bonus Track Edition (2020), Black Metal (D)
post Oct 31 2020, 19:59:16
Post #1

Литр
*
Group: Подсевший
Posts: 82
Releases: 11
On Forums: 13 years 8 months
Thanks: 420 time(s)
Poland


(IMG:https://metalarea.org/images/audiocovers/2020_Oct/acov_tid343247_thumb.jpg)

*Artist: Psychonaut 4
*Album: Beautyfall Bonus Track Edition
*Year: 2020
*Genre: Black Metal
*Country: Georgia (IMG:https://metalarea.org/forum/style_images/flags/Georgia.png)
*Format: mp3@CBR128kbps (IMG:https://metalarea.org/images/bit_low.gif)
*Size: 52MB

Tracklist:
1. One Man's War 3:06
2. Tbilisian Tragedy 9:52
3. And How Are You 6:32
4. Sana Sana Sana, Cura Cura Cura 8:27
5. #tokeepandtouse 8:06
6. And Sorrow, Again 9:31
7. Dust, the Enemy 6:25
8. Sterile Nails And Thunderbowels (Silencer Cover Bonus Track) 6:34
******************************
Total playing time: 58:33

Extended info
A psychonaut is a human being who deeply explores his or her own mind (usually with the aid of recreational drug use). The "4" in the band's name refers to the number of plateaus in the drug dextromethorphan. Lead vocalist Graf came up with the part "Psychonaut" for the band's name and ex-bassist André added the "4".


Technical info
(IMG:https://metalarea.org/images/spectrogram/2020_Oct/c9ed326484bc97c9ede8849d7cd64dfa.png)
Input File: 06-and_sorrow_again-heerwegen_tod.mp3
Channels : 2
Sample Rate : 48000
Precision : 16-bit
Duration : 00:09:31.56 = 27435024 samples ~ 42867.2 CDDA sectors
File Size : 22.9M
Bit Rate : 320k
Sample Encoding: MPEG audio (layer I, II or III)
Comments :
Title=And Sorrow, Again
Artist=Psychonaut 4
Album=Beautyfall
Year=2020
Genre=Black Metal



Register


Go to the top of the page
  Insert nick Quick quote
+Quote Post
 
Start new topic
Replies (1 - 4)
post Nov 1 2020, 22:14:10
Post #2

De Mysteriis Dom Sathanas
**************
Group: Металариец
Posts: 4,167
Releases: 63
From: Doom
On Forums: 12 years 6 months
Thanks: 3567 time(s)
Russian Federation


Подожду 320, пожалуй
Бонус треки что-ли?

This post has been edited by RUSP73: Nov 1 2020, 22:17:27
Go to the top of the page
  Insert nick Quick quote
+Quote Post
post Nov 4 2020, 09:15:00
Post #3

my church is black
**********
Group: Металариец
Posts: 1,033
Releases: 4
On Forums: 3 years 7 months
Thanks: 697 time(s)
Bhutan


лось без бонустрека
Register
Go to the top of the page
  Insert nick Quick quote
+Quote Post
post Nov 4 2020, 09:30:31
Post #4

Два Литра
**
Group: Завсегдатай
Posts: 174
Releases: 0
From: Isla de Margarita, Venezuela
On Forums: 2 years 1 week
Thanks: 18 time(s)
Venezuela


QUOTE(Krosis @ Nov 4 2020, 04:15:00) *
лось без бонустрека


320kbps please (IMG:style_emoticons/default/pray.gif)
Go to the top of the page
  Insert nick Quick quote
+Quote Post
post Nov 4 2020, 10:38:07
Post #5

my church is black
**********
Group: Металариец
Posts: 1,033
Releases: 4
On Forums: 3 years 7 months
Thanks: 697 time(s)
Bhutan


ЦИТАТА(metaljosue @ 4th November 2020 - 13:30:31) *
320kbps please

Register
Go to the top of the page
  Insert nick Quick quote
+Quote Post

Причина закрытия (DarkHorde 04-11-2020): Psychonaut 4 - Beautyfall (2020)
Closed TopicStart new topic
1 User(s) are reading this topic (1 Guests and 0 Anonymous Users)
0 Members:

 



- Lo-Fi Version Support form
Copyrights and abuse reports form
Time is now: 25th January 2021 - 03:00:41