Welcome Guest ( Log In | Register )

> Releases Upload / Добавление релизов

Добавить релиз тут / Click here to add release
Рекомендованные обменники / Recommended file shares

 
Reply to this topicStart new topic
> Cursed Blood - Taker Of Life [ep] (2020), Death/Thrash Metal
post Nov 1 2020, 05:30:06
Post #1

Правь статус, ####!111
**************
Group: Металариец
Posts: 23,988
Releases: 16861
From: Г.Харьков
On Forums: 8 years 6 months
Thanks: 321261 time(s)
Unknown


(IMG:https://metalarea.org/images/audiocovers/2020_Nov/acov_tid343283_thumb.jpg)

*Artist: Cursed Blood
*Album: Taker Of Life [ep]
*Year: 2020
*Genre: Death/Thrash Metal
*Country: Greece (IMG:https://metalarea.org/forum/style_images/flags/Greece.png)
*Format: mp3@CBR320kbps
*Size: 51MB

Tracklist:
1. The World of Madness 02:23
2. Silent Era 03:34
3. Taker of Life 05:30
4. Nailed 02:39
5. Thorns & Nails 03:23
6. Backlash Rampage 04:01
******************************
Total playing time: 21:30





Extended info
Tilemachos Bass
See also: Burial Hordes, Dead Congregation, ΠΑΡΟΞΥΣΜΟΣ, ex-Enshadowed
Nikos Drums
See also: Progress of Inhumanity, Vulnus, Cut Off, Dull, Krause, Olajuwon, ex-Morbidity, ex-Straighthate, ex-Mencea, ex-Godja
Costa Guitars
See also: Early Death, Satan's Wrath, ex-Nuclear Winter, ex-Straighthate
Aris Vocals
See also: Sarabante


Technical info
(IMG:https://metalarea.org/images/spectrogram/2020_Nov/75e7b833eea329f4ec403bc93b06a78d.png)
Input File: 03 Taker of Life.mp3
Channels : 2
Sample Rate : 44100
Precision : 16-bit
Duration : 00:05:30.10 = 14557454 samples = 24757.6 CDDA sectors
File Size : 13.4M
Bit Rate : 325k
Sample Encoding: MPEG audio (layer I, II or III)
Comments :
Title=Taker of Life
Artist=Cursed Blood
Album=Taker of Life
Tracknumber=3/6
Year=2020-20-20
Genre=Metal
Discnumber=1/1



Register


Go to the top of the page
  Insert nick Quick quote
+Quote Post

Reply to this topicStart new topic
1 User(s) are reading this topic (1 Guests and 0 Anonymous Users)
0 Members:

 



- Lo-Fi Version Support form
Copyrights and abuse reports form
Time is now: 29th November 2020 - 18:08:44