Welcome Guest ( Log In | Register )

> Asmoday - Misanthrop (2020), Black Metal
post Nov 1 2020, 19:01:14
Post #1

Правь статус, ####!111
**************
Group: Металариец
Posts: 3,573
Releases: 3242
From: Одесса
On Forums: 12 years 7 months
Thanks: 34087 time(s)
Ukraine


(IMG:http://metalarea.org/images/audiocovers/2020_Nov/acov_tid343310_thumb.jpg)

*Artist: Asmoday
*Album: Misanthrop
*Year: 2020
*Genre: Black Metal
*Country: Germany (IMG:http://metalarea.org/forum/style_images/flags/Germany.png)
*Format: mp3@CBR320kbps
*Size: 100MB

Tracklist:
1. Intro 03:23
2. Misanthrop 05:48
3. Zeitgeist 08:43
4. Fahrt zur Hölle 09:59
5. Von anderer Art 03:30
6. Frostende 08:24
7. Outro 02:59 instrumental
******************************
Total playing time: 42:46

Extended info
Line - up:

Wolfi - Drums (ex-Helvegr)
JoJo - Guitars
Maddin - Vocals
Markus - Guitars
Piti - Bass (ex-Knaat)

(IMG:https://www.metal-archives.com/images/3/5/4/0/3540375001_photo.jpg?4901)


Technical info
(IMG:http://metalarea.org/images/spectrogram/2020_Nov/dd3e542044de446152ffdd1bc5c79ee8.png)
Input File: 01. Intro.mp3
Channels : 2
Sample Rate : 44100
Precision : 16-bit
Duration : 00:03:23.06 = 8955122 samples = 15229.8 CDDA sectors
File Size : 8.17M
Bit Rate : 322k
Sample Encoding: MPEG audio (layer I, II or III)
Comments :
Title=Intro
Artist=Asmoday
Album=Misanthrop
Tracknumber=1
Year=2020
Genre=138



Register


Go to the top of the page
  Insert nick Quick quote
+Quote Post
 
Start new topic
Replies (1 - 4)
post Nov 2 2020, 12:44:14
Post #2

MDM-Thrash Metal
**************
Group: Металариец
Posts: 10,113
Releases: 1135
From: Одесса
On Forums: 13 years 5 months
Thanks: 28099 time(s)
Ukraine


https://www.youtube.com/user/AsmodayGermany

Go to the top of the page
  Insert nick Quick quote
+Quote Post
post Nov 3 2020, 14:33:04
Post #3

0%Tolerance
******
Group: Металариец
Posts: 652
Releases: 0
On Forums: 8 years 4 months
Thanks: 112 time(s)
Unknown


Мизантроп бодрит. Оптихyемистично. (IMG:style_emoticons/default/1488.gif)
На репите. (IMG:style_emoticons/default/18.gif)
Go to the top of the page
  Insert nick Quick quote
+Quote Post
post Nov 3 2020, 17:29:50
Post #4

Правь статус, ####!111
**************
Group: Металариец
Posts: 3,438
Releases: 11
From: Dnipro
On Forums: 12 years 6 months
Thanks: 1287 time(s)
Ukraine


Go to the top of the page
  Insert nick Quick quote
+Quote Post
post Dec 11 2020, 10:25:13
Post #5

добрый мизантроп
***********
Group: Металариец
Posts: 1,984
Releases: 0
From: Минск
On Forums: 10 years 2 months
Thanks: 971 time(s)
Madagascar


После второго прогона в метро - нечего тут слушать, шифтдел
Go to the top of the page
  Insert nick Quick quote
+Quote Post

Reply to this topicStart new topic
1 User(s) are reading this topic (1 Guests and 0 Anonymous Users)
0 Members:

 



- Lo-Fi Version Support form
Copyrights and abuse reports form
Time is now: 27th January 2021 - 13:49:50