Welcome Guest ( Log In | Register )

> 

Здесь релизы с живыми прямыми ссылками на lossless

> Summoning Death - One Step Beyond (2020), Old School Death Metal
post Nov 3 2020, 04:50:00
Post #1

Правь статус, ####!111
**************
Group: Металариец
Posts: 25,244
Releases: 17988
From: Г.Харьков
On Forums: 8 years 9 months
Thanks: 352412 time(s)
Unknown


(IMG:https://metalarea.org/images/audiocovers/2020_Nov/acov_tid343387_thumb.jpg)

*Artist: Summoning Death
*Album: One Step Beyond
*Year: 2020
*Genre: Old School Death Metal
*Country: Mexico (IMG:https://metalarea.org/forum/style_images/flags/Mexico.png)
*Format: mp3@CBR320kbps
*Size: 117MB

Tracklist:
1. The Devils Laughter 05:49
2. Make Me Not a Witch 05:49
3. The Bride Possessed 05:03
4. Night of the Kill 04:33
5. The Mask 05:29
6. House of the Dead 07:45
7. The Image of the Death 06:56
8. The Storm 05:54
9. Silence of the Centuries (Depravity cover) 03:48
******************************
Total playing time: 51:06




Extended info
Grey Arceo Bass (2014-2017, 2019-present)
See also: ex-Ticio
Ricardo Gil Guitars (2014-present)
See also: Difer Nom Basta, ex-As Light Fades, ex-Denial, ex-Necroccultus, ex-Spectral Domination, ex-The Suffering, ex-Trono de Huesos
Sergio Álvarez Bass (2018-2019), Guitars (2019-present)
See also: Difer Nom Basta, ex-Ravager, ex-Hacavitz
Iván Herrera Drums (2019-present)
See also: Delirium, Evil Entourage, ex-Foeticide, ex-Raped God 666, ex-Rapture, ex-Warfield, ex-Xastur, ex-Disgorge (live)
Abigail Paz Vocals (2020-present)
See also: ex-Ticio



Technical info
(IMG:https://metalarea.org/images/spectrogram/2020_Nov/ef2415767fd9ec4497d8aa307382729f.png)
Input File: 06. House of the Dead.mp3
Channels : 2
Sample Rate : 44100
Precision : 16-bit
Duration : 00:07:46.24 = 20561008 samples = 34967.7 CDDA sectors
File Size : 18.7M
Bit Rate : 320k
Sample Encoding: MPEG audio (layer I, II or III)
Comments :
Title=House of the Dead
Artist=Summoning Death
Album=One Step Beyond
Tracknumber=06
Year=2020



Register


Go to the top of the page
  Insert nick Quick quote
+Quote Post
 
Start new topic
Replies (1 - 6)
post Nov 3 2020, 13:37:25
Post #2

Правь статус, ####!111
**************
Group: Металариец
Posts: 48,326
Releases: 786
On Forums: 11 years 9 months
Thanks: 42176 time(s)
Russian Federation


Обложка очень хороша и нетрививльна для жанра, сразу вызывает желание послушать материал.
Go to the top of the page
  Insert nick Quick quote
+Quote Post
post Nov 3 2020, 17:50:24
Post #3

Три Литра
***
Group: Завсегдатай
Posts: 235
Releases: 0
From: Минск
On Forums: 9 years 10 months
Thanks: 148 time(s)
Russian Federation


Обложка...
Мне обложку к Spiritual Healing напомнило. Вот хрен знает, но ассоциация первая такая была. Хотя там весь в белом и без книжки. Не знаю.
По материалу - слушаю пока. Какой-то прям entombed временами, первая композиция - гитарные ходы, излюбленные шведами.


Thanks:
(1) ingram,
Go to the top of the page
  Insert nick Quick quote
+Quote Post
post Nov 3 2020, 18:21:47
Post #4

Common dweller of hell
**************
Group: Металариец
Posts: 3,581
Releases: 11
From: Dnipro
On Forums: 12 years 7 months
Thanks: 1384 time(s)
Ukraine


ЦИТАТА(vosmidesijatye @ Nov 3 2020, 14:37:25) *
Обложка очень хороша и нетрививльна для жанра.

По моему обложка как раз классическая для этого жанра. Судя по ней сразу же можно сказать что внутреннее наполнение альбома далеко от heavy, black, power, doom and thrash metal. Что же касаемо музыки, то она тут очень хороша.


Thanks:
Go to the top of the page
  Insert nick Quick quote
+Quote Post
post Nov 4 2020, 14:59:15
Post #5

Четыре Литра
****
Group: Металариец
Posts: 379
Releases: 0
From: Vilnius
On Forums: 14 years 2 weeks
Thanks: 120 time(s)
Lithuania


Тыркнул на Ютубе, сначала не впечатлило, но песенке на 3-4 втянулся и решил качнуть, -что-то в них есть...
Go to the top of the page
  Insert nick Quick quote
+Quote Post
post Nov 9 2020, 22:13:37
Post #6

...Only Death Is Real...
**************
Group: Металариец
Posts: 2,937
Releases: 19
On Forums: 10 years 7 months
Thanks: 1940 time(s)
Antarctica


Хорошая шведятина из Мексики. (IMG:style_emoticons/default/crazy.gif) Да ещё и с кавером на Depravity. (IMG:style_emoticons/default/20.gif)
Go to the top of the page
  Insert nick Quick quote
+Quote Post
post Feb 11 2021, 08:34:59
Post #7

Восемь Литров
********
Group: Металариец
Posts: 891
Releases: 1
From: APATIN, SERBIA, АПАТИН, СЕРБИЯ
On Forums: 13 years 4 months
Thanks: 1849 time(s)



Flac

Register
Go to the top of the page
  Insert nick Quick quote
+Quote Post

Reply to this topicStart new topic
1 User(s) are reading this topic (1 Guests and 0 Anonymous Users)
0 Members:

 



- Lo-Fi Version Support form
Copyrights and abuse reports form
Time is now: 8th March 2021 - 16:18:38