Welcome Guest ( Log In | Register )

> Lords Of Black - Alchemy Of Souls, Pt. I (2020), Heavy/Power Metal (D4)
post Nov 3 2020, 17:57:16
Post #1

Правь статус, ####!111
**************
Group: Металариец
Posts: 24,668
Releases: 17474
From: Г.Харьков
On Forums: 8 years 8 months
Thanks: 338315 time(s)
Unknown


(IMG:https://metalarea.org/images/audiocovers/2020_Nov/acov_tid343409_thumb.jpg)

*Artist: Lords Of Black
*Album: Alchemy Of Souls, Pt. I
*Year: 2020
*Genre: Heavy/Power Metal
*Country: Spain (IMG:https://metalarea.org/forum/style_images/flags/Spain.png)
*Format: mp3@CBR320kbps
*Size: 140MB

Tracklist:
01. Dying To Live Again
02. Into The Black
03. Deliverance Lost
04. Sacrifice
05. Brightest Star
06. Closer To Your Fall
07. Shadows Kill Twice
08. Disease In Disguise
09. Tides Of Blood
10. Alchemy Of Souls
11. You Came To Me (Piano Version)
12. You Came To Me (Japan Bonus Track)
******************************
Total playing time: 1:00:12



Extended info
Japanese Edition
Tony Hernando Guitars
Ronnie Romero Vocals
Dani Criado Bass
Jo Nunez Drums


Technical info
(IMG:https://metalarea.org/images/spectrogram/2020_Nov/e11273fd74d130314debfe1ac6d57dde.png)
Input File: 07. Shadows Kill Twice.mp3
Channels : 2
Sample Rate : 44100
Precision : 16-bit
Duration : 00:06:18.12 = 16675092 samples = 28359 CDDA sectors
File Size : 15.4M
Bit Rate : 325k
Sample Encoding: MPEG audio (layer I, II or III)
Comments :
Title=Shadows Kill Twice
Artist=Lords of Black
Album=Alchemy Of Souls, Pt. I
Tracknumber=7/12
Year=2020
Discnumber=1/1



Register


Go to the top of the page
  Insert nick Quick quote
+Quote Post
 
Start new topic
Replies (1 - 4)
post Nov 3 2020, 22:05:50
Post #2

Тридцать лет на борту "Тяжёлого" крейсера
**************
Group: Металариец
Posts: 2,475
Releases: 0
From: Питер
On Forums: 13 years 7 months
Thanks: 762 time(s)
Russian Federation


А альбом сыроват, аранжировки сделаны на скорую руку, поторопились ребята
Насколько прошлые релизы были плотными и мощными, настолько же эта пластинка уступает им
Ну, провальные работы бывают и у монстров
Go to the top of the page
  Insert nick Quick quote
+Quote Post
post Nov 9 2020, 20:52:12
Post #3

грызущие вместе
*****
Group: Металариец
Posts: 480
Releases: 0
From: Moscow/MO
On Forums: 14 years 2 months
Thanks: 164 time(s)
Russian Federation


По мне вполне себе приличный альбом, особенно "Sacrifice" и "Closer to the Fall" понравились
Go to the top of the page
  Insert nick Quick quote
+Quote Post
post Dec 2 2020, 16:43:25
Post #4

Три Литра
***
Group: Завсегдатай
Posts: 256
Releases: 0
From: Суворов
On Forums: 2 years 11 months
Thanks: 6 time(s)
Russian Federation


Power Metal здесь вообще чуть-чуть. Скорее, этот альбом, просто хэви-метал. Другие работы коллектива не слушал, но этот альбом слабоват в плане мощи и хитовости.
Go to the top of the page
  Insert nick Quick quote
+Quote Post
post Dec 9 2020, 16:35:49
Post #5

Group: Дух
Posts: 4
Releases: 0
On Forums: 12 years 10 months
Thanks: 0 time(s)
Argentina



Ссылки вниз, могут ли они ререйзить?
Go to the top of the page
  Insert nick Quick quote
+Quote Post

Reply to this topicStart new topic
1 User(s) are reading this topic (1 Guests and 0 Anonymous Users)
0 Members:

 



- Lo-Fi Version Support form
Copyrights and abuse reports form
Time is now: 25th January 2021 - 02:37:09