Welcome Guest ( Log In | Register )

> Sadroom - Sjuklig Sorg (2020), Atmospheric/Depressive Black Metal
post Nov 16 2020, 18:08:22
Post #1

Правь статус, ####!111
**************
Group: Металариец
Posts: 3,569
Releases: 3240
From: Одесса
On Forums: 12 years 7 months
Thanks: 34054 time(s)
Ukraine


(IMG:http://metalarea.org/images/audiocovers/2020_Nov/acov_tid343962_thumb.jpg)

*Artist: Sadroom
*Album: Sjuklig Sorg
*Year: 2020
*Genre: Atmospheric/Depressive Black Metal
*Country: Brazil (IMG:http://metalarea.org/forum/style_images/flags/Brazil.png)
*Format: mp3@CBR320kbps
*Size: 75MB

Tracklist:
1. Jag är sorgsen 04:08
2. Sjukdomstridighet 01:40
3. Mörker 06:45
4. Sorglig natt 03:46
5. Ensamhet och ensamhet 06:37
6. Djupare otrygghet 08:48
******************************
Total playing time: 31:44



Technical info
(IMG:http://metalarea.org/images/spectrogram/2020_Nov/4339ccdce19d675b6669e88ef11e4045.png)
Input File: 04. Sorglig Natt.mp3
Channels : 2
Sample Rate : 44100
Precision : 16-bit
Duration : 00:03:46.18 = 9974670 samples = 16963.7 CDDA sectors
File Size : 9.10M
Bit Rate : 322k
Sample Encoding: MPEG audio (layer I, II or III)
Comments :
Title=Sorglig Natt
Artist=Sadroom
Album=Sjuklig Sorg
Tracknumber=4
Year=2020
Genre=Atmospheric/Depressive Black Metal



Register


Go to the top of the page
  Insert nick Quick quote
+Quote Post
 
Start new topic
Replies (1 - 1)
post Dec 13 2020, 13:17:11
Post #2

i listen to black metal
**************
Group: Металариец
Posts: 2,780
Releases: 133
From: Москва-Лианозово
On Forums: 14 years 1 month
Thanks: 2211 time(s)
Russian Federation


галимый инструментал
Go to the top of the page
  Insert nick Quick quote
+Quote Post

Reply to this topicStart new topic
1 User(s) are reading this topic (1 Guests and 0 Anonymous Users)
0 Members:

 



- Lo-Fi Version Support form
Copyrights and abuse reports form
Time is now: 25th January 2021 - 10:55:58