Welcome Guest ( Log In | Register )

> Slough Of Despair - Catacombs Of Terror (2020), Doom/Death Metal
post Nov 17 2020, 17:13:12
Post #1

Правь статус, ####!111
**************
Group: Металариец
Posts: 24,598
Releases: 17427
From: Г.Харьков
On Forums: 8 years 8 months
Thanks: 336257 time(s)
Unknown


(IMG:http://metalarea.org/images/audiocovers/2020_Nov/acov_tid344014_thumb.jpg)

*Artist: Slough Of Despair
*Album: Catacombs Of Terror
*Year: 2020
*Genre: Doom/Death Metal
*Country: Greece (IMG:http://metalarea.org/forum/style_images/flags/Greece.png)
*Format: mp3@CBR320kbps
*Size: 88MB

Tracklist:
1. Burial of Sanity 07:35
2. Disease of Human Minds 07:25
3. Humanitys Crucifixion 05:44
4. Shattered Reality 05:57
5. Cursed Fate 05:56
6. Catacombs of Terror 06:01
******************************
Total playing time: 38:38




Extended info
Jim Bass, Drums
See also: Blessed, Feeble, Horrorgraphy, Humanity Zero, Inhibitions, Misanthropy Apotheosis, Skarz, ex-Buried Emotion, ex-Heathendom
Panos Guitars
See also: Age of Sorrow, Mallediction, ex-Ordeal, ex-Chthonian Alchemy, ex-Necrorgasm, ex-Devathorn (live)
Velnias Vocals (2019-present)
See also: Aeon Dust, Serpent's Order, Withering Skies, ex-Horror Lord, ex-Nipenthis (live), ex-Odin's Court, ex-Night of the Dark Ages


Technical info
(IMG:http://metalarea.org/images/spectrogram/2020_Nov/0d514b1df70c1a7c4472610a81b97c0a.png)
Input File: 01 - Burial of Sanity.mp3
Channels : 2
Sample Rate : 44100
Precision : 16-bit
Duration : 00:07:35.30 = 20078818 samples = 34147.6 CDDA sectors
File Size : 18.2M
Bit Rate : 320k
Sample Encoding: MPEG audio (layer I, II or III)
Comments :
Title=Burial of Sanity
Artist=Slough of Despair
Album=Catacombs of Terror
Tracknumber=1
Year=2020
Genre=Metal



Register


Go to the top of the page
  Insert nick Quick quote
+Quote Post
 
Start new topic
Replies (1 - 3)
post Nov 18 2020, 03:36:01
Post #2

Литр
*
Group: Подсевший
Posts: 98
Releases: 0
On Forums: 2 months 1 week
Thanks: 57 time(s)
Somalia


Простенько и со вкусом. Греки шарят.
Go to the top of the page
  Insert nick Quick quote
+Quote Post
post Nov 18 2020, 16:11:25
Post #3

Три Литра
***
Group: Завсегдатай
Posts: 225
Releases: 0
On Forums: 2 years 11 months
Thanks: 93 time(s)
Belarus


Очень даже не плохо. В лучших традициях, как говорится. Спасибо авторам и релизеру.
Go to the top of the page
  Insert nick Quick quote
+Quote Post
post Nov 20 2020, 21:24:45
Post #4

funeral doom fan
Group Icon
Group: S-moderation team
Posts: 4,860
Releases: 2524
From: Ростов-на-Дону
On Forums: 15 years 3 weeks
Thanks: 48469 time(s)
Russian Federation


Сюда бы вокал помощнее, а не это усталое кряхтение. Музыка-то хороша.
Go to the top of the page
  Insert nick Quick quote
+Quote Post

Reply to this topicStart new topic
1 User(s) are reading this topic (1 Guests and 0 Anonymous Users)
0 Members:

 



- Lo-Fi Version Support form
Copyrights and abuse reports form
Time is now: 20th January 2021 - 21:31:27