Welcome Guest ( Log In | Register )

> Releases Upload / Добавление релизов

Добавить релиз тут / Click here to add release
Рекомендованные обменники / Recommended file shares

> Death In Alliance - Death In Alliance (2020), Melodic Death Metal
post Nov 17 2020, 19:18:42
Post #1

Правь статус, ####!111
**************
Group: Металариец
Posts: 24,569
Releases: 17398
From: Г.Харьков
On Forums: 8 years 8 months
Thanks: 335466 time(s)
Unknown


(IMG:http://metalarea.org/images/audiocovers/2020_Nov/acov_tid344025_thumb.jpg)

*Artist: Death In Alliance
*Album: Death In Alliance
*Year: 2020
*Genre: Melodic Death Metal
*Country: United States (IMG:http://metalarea.org/forum/style_images/flags/United%20States.png)
*Format: mp3@CBR320kbps
*Size: 124MB

Tracklist:
1. Embers
2. Destroy the Lives of Everyone
3. Decadence
4. Conquer and Divide
5. Demons Calling
6. Daybreak
7. The Final Hour
8. Soldier's Son
9. Embracing Death
10. Eye of the Gods
11. Fields of Fire
******************************
Total playing time: 53:50



Extended info



Technical info
(IMG:http://metalarea.org/images/spectrogram/2020_Nov/9e177dc35e0746c1d82946c31d100d6f.png)
Input File: 06 - Daybreak.mp3
Channels : 2
Sample Rate : 44100
Precision : 16-bit
Duration : 00:05:16.39 = 13952623 samples = 23729 CDDA sectors
File Size : 12.9M
Bit Rate : 326k
Sample Encoding: MPEG audio (layer I, II or III)
Comments :
Title=Daybreak
Artist=Death in Alliance
Album=Death in Alliance
Tracknumber=6
Year=2020



Register


Go to the top of the page
  Insert nick Quick quote
+Quote Post
 
Start new topic
Replies (1 - 3)
post Nov 18 2020, 07:57:01
Post #2

hearer & reader
**************
Group: Металариец
Posts: 9,375
Releases: 169
From: Moscow
On Forums: 13 years 4 months
Thanks: 10209 time(s)
Russian Federation


ЦИТАТА
The group consists of vocalist Tim Ryan, guitarists Jason Mann and Chris Owen, drummer Michael Lester, and bassist Joseph Arnold.


Go to the top of the page
  Insert nick Quick quote
+Quote Post
post Nov 22 2020, 01:44:43
Post #3

Ъ
**************
Group: Металариец
Posts: 10,421
Releases: 9
On Forums: 12 years 1 week
Thanks: 2125 time(s)
Sweden


Третьесорт, фоном на раз пойдет.
Go to the top of the page
  Insert nick Quick quote
+Quote Post
post Nov 22 2020, 01:52:16
Post #4

Это просто место… где все подошло к концу.
**************
Group: Металариец
Posts: 6,137
Releases: 0
From: Страны Мамонтов
On Forums: 13 years 10 months
Thanks: 2386 time(s)
Antarctica


Слушал, слушал и расслушал. Неплохой альбомец, точно.
Go to the top of the page
  Insert nick Quick quote
+Quote Post

Reply to this topicStart new topic
1 User(s) are reading this topic (1 Guests and 0 Anonymous Users)
0 Members:

 



- Lo-Fi Version Support form
Copyrights and abuse reports form
Time is now: 17th January 2021 - 16:53:28